<?xml version="1.0" standalone="no"?>
<!DOCTYPE svg PUBLIC "-//W3C//DTD SVG 1.1//EN" "http://www.w3.org/Graphics/SVG/1.1/DTD/svg11.dtd" >
<svg xmlns="http://www.w3.org/2000/svg" xmlns:xlink="http://www.w3.org/1999/xlink" version="1.1">
<metadata></metadata>
<defs>
<font id="akzidenz-grotesk_bqmedium" horiz-adv-x="1150" >
<font-face units-per-em="2048" ascent="1638" descent="-410" />
<missing-glyph horiz-adv-x="589" />
<glyph horiz-adv-x="0" />
<glyph horiz-adv-x="682" />
<glyph unicode=" "  horiz-adv-x="589" />
<glyph unicode="&#x09;" horiz-adv-x="589" />
<glyph unicode="&#xa0;" horiz-adv-x="589" />
<glyph unicode="!" horiz-adv-x="512" d="M164 0v283h268v-283h-268zM164 893v553h268v-553l-78 -533h-114z" />
<glyph unicode="&#x22;" horiz-adv-x="679" d="M72 1522h196l-61 -613h-72zM410 1522h198l-63 -613h-70z" />
<glyph unicode="#" horiz-adv-x="1366" d="M86 438v205h276l27 193h-258v204h285l55 406h213l-57 -406h200l56 406h207l-56 -406h242v-204h-268l-29 -193h252v-205h-277l-63 -438h-207l64 438h-203l-62 -438h-209l62 438h-250zM569 643h205l27 193h-203z" />
<glyph unicode="$" horiz-adv-x="1280" d="M72 272l207 158q60 -84 145 -139q56 -32 72 -35q19 -8 49 -10v391q-151 16 -239 59t-136 111q-59 90 -59 199q0 148 88 254q121 143 346 167v222h188v-222q271 -25 443 -223l-195 -153q-27 35 -57.5 61.5t-50 40t-53.5 26t-43.5 15t-43.5 10.5v-327q29 -4 72 -13 t119.5 -37.5t128.5 -66.5q147 -111 147 -311q0 -180 -119 -299q-70 -70 -155 -105q-73 -28 -193 -45v-233h-188v233q-76 14 -113 23t-88 30t-100 53q-60 42 -109 91q-19 19 -63 75zM379 1047q0 -61 41 -91q42 -33 125 -47v295q-2 0 -20.5 -4t-28.5 -8q-14 -5 -29 -13 t-37.5 -24.5t-36.5 -44.5t-14 -63zM733 242q36 5 62 16q135 56 135 176q-2 131 -197 174v-366z" />
<glyph unicode="%" horiz-adv-x="1792" d="M53 928q0 212 74 329q91 138 264 138q121 0 199 -69t108 -189q21 -79 21 -199q2 -104 -12.5 -184.5t-59.5 -151.5q-88 -141 -264 -141q-158 0 -250 125q-44 66 -61 143q-19 78 -19 199zM238 922q0 -99 14 -166q18 -83 65 -115q33 -20 70 -20q24 0 54 13t51 44 q43 62 43 250q0 169 -35 237q-21 40 -53 57t-60 17q-29 0 -61.5 -17t-53.5 -59q-34 -69 -34 -241zM487 -12l646 1401l139 -66l-643 -1399zM1075 459v15.5v22.5t0.5 25t2 30.5t3.5 32.5t6 36.5t9 36.5t12 38.5t16 38.5q91 185 291 185q150 0 236 -117q51 -69 71 -158 q17 -71 19 -188q0 -127 -19 -203q-6 -27 -16 -55t-35 -69t-57 -70.5t-86.5 -51.5t-120.5 -22q-176 0 -262 137q-44 69 -57 147.5t-13 188.5zM1260 444q0 -98 14 -165q18 -83 65 -115q35 -21 70 -21q24 0 53.5 13.5t50.5 44.5q43 62 43 250q0 170 -34 237q-21 40 -53 57 t-60 17q-29 0 -61.5 -17t-53.5 -59q-34 -69 -34 -242z" />
<glyph unicode="&#x26;" horiz-adv-x="1323" d="M88 377q0 74 27 145q24 62 73 117.5t83 80t114 76.5q5 4 8.5 6.5t7.5 4.5q-61 95 -61 213q0 141 84 233q90 103 250 103q70 0 143 -27q85 -36 138 -112t53 -168q0 -31 -7.5 -64t-26.5 -71.5t-48.5 -73t-79 -67t-111.5 -54.5q13 -24 31 -51.5t41 -60t35 -50.5 q65 -94 82 -113q16 23 28.5 48t19.5 42t12.5 42.5t7 35t4.5 34t3 26.5l236 -2q-5 -54 -12 -76q-8 -34 -22.5 -78.5t-51 -120t-80.5 -131.5q35 -36 64 -49.5t79 -13.5q9 0 45 4v-205q-65 -6 -100 -6q-71 0 -123.5 12.5t-78.5 27t-62 42.5q-31 -21 -56 -35t-69.5 -33 t-100.5 -29t-120 -10q-195 0 -320 101q-66 56 -102.5 137.5t-36.5 169.5zM336 393q0 -58 24 -96q22 -42 71.5 -78.5t129.5 -36.5q107 0 199 78l-248 363q-35 -17 -72 -45q-61 -48 -82.5 -92t-21.5 -93zM571 1055q0 -62 62 -154l37 12q13 4 28.5 12t39.5 24t39.5 44t15.5 62 q0 48 -32.5 78t-80.5 30t-79 -30.5t-30 -77.5z" />
<glyph unicode="'" horiz-adv-x="339" d="M72 1522h196l-61 -613h-72z" />
<glyph unicode="(" horiz-adv-x="667" d="M72 647q0 186 56.5 366t160.5 328q62 84 129 154q78 78 166 143l94 -104q-101 -103 -156 -178q-96 -136 -147 -312.5t-51 -373.5q0 -275 95.5 -511t262.5 -374l-90 -121q-21 15 -49 37q-143 118 -234 236q-237 304 -237 710z" />
<glyph unicode=")" horiz-adv-x="671" d="M-2 -231q101 103 156 178q97 137 148.5 313.5t51.5 374.5q0 275 -94.5 509.5t-261.5 373.5l90 120q11 -9 27 -21l20 -15q133 -108 234 -236q237 -311 237 -711q0 -186 -56.5 -365.5t-162.5 -328.5q-58 -83 -126.5 -151.5t-168.5 -145.5z" />
<glyph unicode="*" horiz-adv-x="774" d="M41 1126l51 170l201 -57v211h178v-213l205 70l57 -166l-201 -70l123 -162l-139 -108l-131 170l-119 -170l-143 104l115 164z" />
<glyph unicode="+" horiz-adv-x="1482" d="M190 532v220h418v436h266v-436h418v-220h-418v-442h-266v442h-418z" />
<glyph unicode="," horiz-adv-x="425" d="M76 0v281h272v-301v-9q0 -105 -55.5 -162t-165.5 -85q-16 -3 -35 -9v119q64 7 87.5 51t23.5 115h-127z" />
<glyph unicode="-" horiz-adv-x="761" d="M84 506v231h592v-231h-592z" />
<glyph unicode="." horiz-adv-x="425" d="M76 0v281h270v-281h-270z" />
<glyph unicode="/" horiz-adv-x="980" d="M27 0l686 1446h243l-686 -1446h-243z" />
<glyph unicode="0" d="M74 688q0 263 60.5 410.5t182.5 226.5q119 80 271 80q168 0 286 -98q64 -53 108 -125.5t64.5 -157.5t28.5 -161t8 -167q-1 -243 -52 -385.5t-152 -224.5q-126 -104 -304 -104q-240 0 -376 180q-63 82 -94 205.5t-31 320.5zM338 684q0 -131 14 -231l2 -11l3.5 -17.5t5 -22 t8 -27t10.5 -28t14.5 -29.5t18.5 -28.5t23 -27t28 -22.5q48 -31 115 -31q61 0 102 24q73 41 104 144q31 97 31 315q5 208 -31 301q-6 35 -30 82q-59 103 -172 103q-95 0 -150 -64q-51 -57 -73.5 -160.5t-22.5 -269.5z" />
<glyph unicode="1" d="M154 961v157h26q81 0 134.5 10.5t105.5 47.5q51 37 76.5 85t42.5 121h204v-1382h-251v791q0 12 0.5 34.5t0 31t-1.5 23.5t-3.5 22.5t-7 16.5t-11.5 17q-13 13 -30 18.5t-26.5 6t-35.5 0.5h-223z" />
<glyph unicode="2" d="M117 0v201q282 202 483 424q150 168 150 338q0 90 -47.5 148t-135.5 58q-73 0 -121 -43q-34 -31 -51.5 -82t-19.5 -85.5t-2 -95.5v-5v-5v-5l-256 24q-1 122 28 213.5t70 145.5q20 28 49.5 54.5t75 55.5t111 46.5t139.5 17.5q189 0 313 -113q64 -58 97.5 -144t31.5 -177 q0 -122 -53 -230q-20 -41 -49.5 -83.5t-52.5 -71t-69.5 -72.5t-65 -61t-76 -65t-68.5 -58q-107 -90 -147 -117h606v-213h-940z" />
<glyph unicode="3" d="M96 453h273q-9 -54 2 -97q6 -25 19 -48.5t36.5 -48t64 -39.5t91.5 -15q63 0 112 26q34 18 57 46t32.5 59t12.5 51t3 37q0 71 -37 123q-59 84 -207 80l-66 -2v215q12 0 51 -1.5t58.5 -0.5t50 6.5t52.5 20t38 38.5q29 39 29 98q0 77 -49 127t-127 50q-91 0 -146 -68 q-51 -63 -53 -164l-270 58q6 34 12 59.5t25.5 73.5t45.5 84.5t74 76t109 64.5q101 43 211 43q48 0 105 -10q32 -6 63.5 -15.5t84.5 -36.5t91 -63t67 -99.5t29 -142.5q0 -173 -122 -252q-44 -29 -107 -45q108 -20 186 -104q76 -92 76 -229q0 -61 -15 -115t-39 -93t-45 -64 t-44 -44q-51 -43 -141 -76.5t-211 -33.5q-27 0 -58.5 3t-88.5 13t-114 38t-98 70q-123 123 -123 347z" />
<glyph unicode="4" d="M35 317v181l606 884h252v-854h178v-211h-178v-317h-252v317h-606zM299 528h342l14 549z" />
<glyph unicode="5" d="M76 387l284 19q3 -90 56.5 -147t142.5 -56q69 0 111 26q57 33 85.5 105.5t28.5 146.5q0 54 -16 105q-8 23 -21 45t-37 49t-64.5 44t-90.5 17q-20 0 -43 -4t-56.5 -15.5t-62.5 -40t-45 -69.5l-229 15l96 759h768l-20 -231h-537l-47 -305q28 28 33 31q95 71 233 71 q185 0 301 -129q117 -128 117 -329q0 -212 -123 -349q-143 -163 -393 -163q-194 0 -318 94q-75 59 -111 135.5t-42 175.5z" />
<glyph unicode="6" d="M98 651q0 35 2 74t9.5 116.5t29 159t54.5 146.5q39 77 96 131q127 127 321 127q177 0 297 -102q101 -87 127 -244l-262 -35q0 36 -12 66q-20 43 -60.5 66.5t-89.5 23.5q-33 0 -64.5 -9.5t-69 -44t-60.5 -90.5q-21 -51 -34 -134.5t-15 -149.5q29 39 61 63q97 76 229 76 q155 0 267 -103q127 -122 127 -327q0 -194 -113 -324q-139 -155 -352 -155q-156 0 -269 81q-69 50 -115.5 121.5t-75 189.5t-28.5 277zM389 434q0 -79 30.5 -129t69.5 -72q40 -22 101 -22q102 0 155 70q48 60 48 155q0 83 -37 139q-54 84 -160 84q-97 0 -152 -64t-55 -161z " />
<glyph unicode="7" d="M131 1145v241h918v-225q-72 -87 -138 -188q-86 -133 -142 -259t-103 -284q-65 -223 -82 -430h-338q13 95 33.5 187t49 176t56 155.5t66.5 145t66.5 124.5t70 115t63 94t59.5 83.5t46 64.5h-625z" />
<glyph unicode="8" d="M59 397q0 106 50 183q57 93 178 145q-53 27 -94 68q-84 96 -84 231q0 98 51 184q23 36 56.5 68.5t84.5 62.5t124.5 48t160.5 18q112 0 196 -29q29 -10 58 -23.5t70 -43.5t71.5 -67.5t52 -97.5t21.5 -130q0 -54 -13.5 -99.5t-32 -74.5t-46 -54t-46.5 -37t-43 -24 q54 -24 105 -72q108 -103 108 -254q0 -116 -57 -206q-53 -85 -169 -148t-290 -63q-120 0 -217 32q-30 10 -61 24t-75.5 46t-77.5 72t-57 103.5t-24 137.5zM348 406q0 -88 64 -144q62 -51 172 -51q99 0 164 50.5t65 146.5q0 43 -14.5 78t-37 56t-42 32.5t-37.5 17.5 q-54 14 -100 14q-69 0 -111 -16q-19 -8 -36.5 -19.5t-39 -33t-34.5 -55.5t-13 -76zM371 993q0 -78 49 -127q28 -26 61 -39q36 -14 103 -14q53 0 92 14q41 14 75.5 54.5t34.5 111.5q0 78 -45 127q-30 30 -63 43q-49 17 -98 17q-53 0 -88 -13q-47 -15 -84 -55t-37 -119z" />
<glyph unicode="9" d="M102 332l281 39q8 -50 20 -76q15 -32 51.5 -59.5t96.5 -26.5q51 0 88 22q51 32 84.5 105.5t43.5 142.5t9 135q-25 -42 -82 -71q-85 -49 -194 -49q-149 0 -256 86q-142 121 -142 348q0 122 41 215q14 32 34.5 63.5t58 69t82.5 65t111.5 46t141.5 18.5q144 0 246 -64 q59 -38 103 -92q33 -42 53 -82q86 -161 86 -419q0 -321 -115 -519q-46 -81 -108 -137q-68 -59 -156 -86q-81 -24 -162 -24q-33 0 -67 5t-87.5 20t-105.5 53.5t-90 95.5q-45 70 -66 176zM369 952q0 -42 8 -82q5 -21 15 -43t30.5 -49.5t57 -45t83.5 -17.5q43 0 77 14t54.5 37 t31 41.5t17.5 38.5q13 44 13 94q0 58 -13 100q-17 56 -53.5 90t-67 43t-61.5 9q-44 0 -90 -25q-102 -57 -102 -205z" />
<glyph unicode=":" horiz-adv-x="512" d="M160 0v281h270v-281h-270zM160 760v282h270v-282h-270z" />
<glyph unicode=";" horiz-adv-x="512" d="M160 0v281h272v-299q0 -122 -62.5 -179.5t-195.5 -89.5v123q113 13 113 144v20h-127zM160 760v282h272v-282h-272z" />
<glyph unicode="&#x3c;" horiz-adv-x="1482" d="M231 526v252l953 467v-254l-709 -332l709 -335v-267z" />
<glyph unicode="=" horiz-adv-x="1482" d="M203 303v219h1077v-219h-1077zM203 719v219h1077v-219h-1077z" />
<glyph unicode="&#x3e;" horiz-adv-x="1482" d="M291 977l2 266l952 -469v-252l-952 -467v254l708 332z" />
<glyph unicode="?" d="M109 997q11 126 38 191q56 143 179.5 212.5t285.5 69.5q96 0 183 -28.5t154 -81.5t107 -135.5t40 -182.5q0 -189 -152 -313q-22 -18 -78 -55q-87 -60 -111 -102.5t-24 -141.5q0 -39 2 -57h-241v51q0 223 57 303q22 32 59 61.5t70.5 51.5t65 49t50.5 65t19 88 q0 84 -65 139.5t-150 55.5q-114 0 -178 -76.5t-64 -191.5zM477 0v281h273v-281h-273z" />
<glyph unicode="@" horiz-adv-x="1835" d="M141 481q0 195 72 374t196 312t300 212t374 79q273 0 442 -161t169 -435q0 -99 -25 -205q-23 -104 -70 -204q-28 -57 -66 -109.5t-86.5 -99.5t-109.5 -75t-123 -28q-76 0 -122.5 40.5t-55.5 117.5q-126 -158 -276 -158q-134 0 -205.5 99t-71.5 239q0 74 18.5 154.5 t56.5 157.5t89 138t123.5 98.5t153.5 37.5q150 0 225 -147l25 104h161l-67 -315q-58 -267 -58 -345q0 -30 12 -52.5t40 -22.5q20 0 42 12.5t32.5 22t31.5 30.5q83 81 131.5 228.5t48.5 277.5q0 219 -130.5 341t-348.5 122q-131 0 -252.5 -45.5t-217 -126t-167.5 -185.5 t-110.5 -229t-38.5 -252q0 -188 85.5 -325.5t230.5 -206t331 -68.5t361.5 80t312.5 219l82 -104q-156 -158 -349.5 -245t-406.5 -87q-170 0 -330 61q-227 89 -343 260.5t-116 413.5zM670 489q0 -131 84 -174q29 -16 61 -16h8q63 5 116 49t84.5 107.5t49 131.5t17.5 128 q0 77 -40 135.5t-114 58.5q-64 0 -117.5 -44t-84.5 -110.5t-47.5 -136t-16.5 -129.5z" />
<glyph unicode="A" horiz-adv-x="1323" d="M12 0l490 1446h307l494 -1446h-289l-84 283h-543l-84 -283h-291zM459 520h399l-199 666z" />
<glyph unicode="B" horiz-adv-x="1409" d="M164 0v1446h518q145 0 217 -6q162 -14 258 -117q92 -98 92 -231q0 -22 -4 -48.5t-15.5 -67t-40.5 -80t-71 -65.5q-37 -24 -108 -38q69 -15 110 -39q33 -17 63 -42t62.5 -65t52 -101.5t19.5 -135.5q0 -111 -48 -200.5t-143 -143.5q-19 -11 -39 -19.5t-36.5 -15 t-40.5 -11.5t-37 -8.5t-41 -5.5t-38 -3.5t-41.5 -2t-38.5 -0.5h-42.5h-40.5h-567zM432 233h303q110 0 151 10q68 16 109 64q45 50 45 127q0 28 -6 57t-34 70.5t-76 65.5q-35 18 -90 25.5t-95.5 8.5t-154.5 1h-152v-429zM432 864h94q143 0 217 4q62 4 106 17t77 49 q45 45 45 113q0 56 -35 100q-11 14 -24.5 25.5t-31 19t-29.5 13.5t-35 9.5t-33.5 6t-37.5 3.5t-33.5 1h-36.5h-32h-211v-361z" />
<glyph unicode="C" horiz-adv-x="1409" d="M76 727q0 285 133 475q25 36 54 68.5t79.5 73t108 70t139.5 49.5t172 20q79 0 150 -15.5t121.5 -38.5t95 -55.5t71.5 -61t49 -59.5q58 -86 101 -217l-269 -69q-7 59 -37 114q-40 75 -115 115q-71 39 -155 39h-8q-87 0 -168 -39q-43 -21 -81 -57.5t-72.5 -91.5t-55 -136 t-20.5 -178q0 -210 86 -342q46 -67 104 -106q96 -66 211 -66q159 0 266 131q19 23 58 88q10 22 26 72l256 -107q-50 -120 -108 -194q-195 -246 -516 -246q-155 0 -291 62q-54 26 -103.5 61.5t-102.5 96t-91 134.5t-63 180.5t-25 229.5z" />
<glyph unicode="D" horiz-adv-x="1449" d="M145 0v1446h519q124 0 208 -16q33 -6 69 -18.5t85.5 -36.5t100.5 -66t94 -97q149 -199 149 -501q0 -112 -22.5 -213.5t-69 -193t-128 -161t-189.5 -104.5q-59 -18 -123 -27t-106.5 -10.5t-125.5 -1.5h-461zM416 244h71q218 0 297 12q139 22 213 113q86 110 86 344 q0 271 -139 395q-72 58 -151 78l-22 5.5t-22 4t-19 2.5t-22 2t-21.5 1.5t-26.5 0.5h-27.5h-34.5h-39h-143v-958z" />
<glyph unicode="E" horiz-adv-x="1280" d="M160 0v1446h1028v-242h-762v-340h698v-233h-698v-387h813v-244h-1079z" />
<glyph unicode="F" d="M166 0v1446h956v-242h-688v-360h604v-232h-604v-612h-268z" />
<glyph unicode="G" horiz-adv-x="1536" d="M94 709q0 143 43 279.5t127 242.5q31 39 71.5 75.5t106.5 80t158 70t195 26.5q122 0 237 -43q266 -105 371 -383l-258 -103q-8 24 -14 38.5t-22.5 48t-33 56t-45.5 51.5t-61.5 47t-78 31t-97.5 13q-157 0 -261 -104q-143 -147 -143 -418q0 -277 166 -416q100 -82 244 -82 q110 0 197.5 53t127.5 152q22 53 31 129h-360v238h608v-791h-232l-2 123q-89 -83 -183 -121.5t-214 -38.5q-277 0 -463 182q-37 37 -70 83.5t-68 116t-56 164t-21 200.5z" />
<glyph unicode="H" horiz-adv-x="1492" d="M164 0v1446h272v-545h621v545h272v-1446h-272v657h-621v-657h-272z" />
<glyph unicode="I" horiz-adv-x="598" d="M164 0v1446h266v-1446h-266z" />
<glyph unicode="J" horiz-adv-x="811" d="M53 -12v266q97 -21 144 -21q72 0 131 31q14 8 25.5 18.5t19.5 20t15 24.5t11 24.5t7 29t4.5 27.5t2.5 30t1 28v29.5v26.5v924h266v-1098q0 -145 -78 -237q-120 -142 -381 -142q-84 0 -168 19z" />
<glyph unicode="K" horiz-adv-x="1366" d="M164 0v1446h268v-664l580 664h317l-473 -545l506 -901h-309l-385 680l-236 -270v-410h-268z" />
<glyph unicode="L" horiz-adv-x="1067" d="M168 0v1446h272v-1200h574v-246h-846z" />
<glyph unicode="M" horiz-adv-x="1662" d="M156 0v1446h393l282 -1073l279 1073h391v-1446h-264l27 1188l-314 -1188h-243l-314 1188l27 -1188h-264z" />
<glyph unicode="N" horiz-adv-x="1449" d="M168 0v1446h244l641 -1020l-33 1020h266v-1446h-237l-633 1014l16 -1014h-264z" />
<glyph unicode="O" horiz-adv-x="1579" d="M98 721q0 151 43 280q71 219 246.5 350.5t405.5 131.5q80 0 154 -17t127 -41t101.5 -57.5t76.5 -60t53 -54.5q180 -204 180 -523v-7q0 -49 -5.5 -99t-23 -130.5t-62 -166t-110.5 -157.5q-110 -116 -246 -166q-115 -41 -252 -41q-155 0 -275 53.5t-220 169.5 q-193 220 -193 535zM377 731q0 -23 1.5 -44.5t6.5 -67t18.5 -87.5t34.5 -90t58.5 -91t85.5 -75q94 -61 213 -61q90 0 166 35q44 21 83.5 53t78.5 84t63 131t26 176v18q0 197 -86 332q-118 191 -335 191q-96 0 -185 -43q-42 -23 -79.5 -58.5t-72.5 -90t-56 -135.5t-21 -177z " />
<glyph unicode="P" horiz-adv-x="1280" d="M168 0v1446h487l53 1q52 1 52 -1q246 -16 375 -168q108 -126 108 -313q0 -80 -18.5 -148t-49.5 -115t-61 -77.5t-63 -51.5q-45 -29 -93 -46.5t-105 -24.5t-96 -8.5t-108 -1.5h-211v-492h-270zM438 713h195q9 0 28.5 1t28.5 1q176 8 236 106q39 70 39 152q0 76 -33 135 q-15 26 -34.5 45t-45 30t-47 17.5t-54.5 9.5t-52 3.5t-54 0.5h-207v-501z" />
<glyph unicode="Q" horiz-adv-x="1579" d="M74 723q0 317 172 526q194 234 516 234q257 0 436 -146q127 -101 191.5 -260t64.5 -332q0 -86 -19.5 -191.5t-52.5 -182.5l-32 -64q12 -26 36 -45q31 -24 87.5 -43.5t95.5 -19.5q10 0 28 4l-75 -260q-4 1 -15 4t-23.5 6.5t-25.5 7.5q-112 44 -246 160q-59 -51 -130.5 -86 t-137.5 -49t-108.5 -18.5t-79.5 -4.5q-77 0 -148.5 15t-123 37t-98 52.5t-74.5 56t-52 52.5q-32 36 -61.5 83t-59 115t-47.5 158.5t-18 190.5zM362 715q0 -89 25 -174q40 -141 143 -230.5t246 -89.5q155 0 254 111q52 57 92.5 157.5t40.5 235.5q0 24 -1.5 46.5t-7 66.5 t-19.5 85t-36 86t-60 86.5t-87 71.5q-105 58 -196 58q-156 0 -264 -125q-130 -155 -130 -385z" />
<glyph unicode="R" horiz-adv-x="1323" d="M166 0v1446h592q255 0 389 -176q88 -116 88 -283q0 -89 -27 -162q-11 -27 -28 -55.5t-46.5 -64t-77.5 -66.5t-106 -49l322 -590h-309l-285 537h-244v-537h-268zM434 762h96q99 0 144 1.5t96 9t82 24.5q109 61 109 192q0 120 -91 180q-36 24 -84 33.5t-133 9.5h-219v-450z " />
<glyph unicode="S" horiz-adv-x="1366" d="M47 272l227 158q145 -217 449 -217q63 0 106 10q13 3 30 8t43.5 19t47 32.5t36 50.5t15.5 70q0 52 -26 86q-12 16 -32 29.5t-38 22t-48.5 17.5t-46 13t-48.5 11t-39 8l-172 39q-156 34 -219 67q-33 17 -62.5 39.5t-65.5 62t-57.5 100.5t-21.5 134q0 120 55 213 q27 45 68.5 84.5t103 75.5t150.5 57t194 21q367 0 584 -293l-223 -166q-134 215 -375 215q-14 0 -27.5 -0.5t-51 -6.5t-67 -16t-61.5 -33t-49 -55q-16 -31 -16 -65q0 -36 18 -66q24 -40 76.5 -60t171.5 -46l149 -33q63 -14 106.5 -26.5t99 -34t100.5 -52.5t79 -71 q84 -92 84 -244q0 -196 -141 -317q-178 -150 -473 -150q-358 0 -563 215q-46 49 -70 94z" />
<glyph unicode="T" d="M45 1202v244h1063v-244h-399v-1202h-271v1202h-393z" />
<glyph unicode="U" horiz-adv-x="1492" d="M164 586v860h272v-889q0 -114 15 -160q54 -172 297 -172q16 0 30.5 1t47 5t60.5 15t59 27.5t56 46.5t39 69q19 56 19 182v875h270v-834v-51v-47v-39t-1 -37.5t-2 -30.5t-3 -31t-4.5 -26t-6 -28.5t-7.5 -26.5q-15 -46 -43 -90.5t-76 -89t-109.5 -77.5t-149.5 -54t-190 -21 q-302 0 -458 172q-63 63 -93 156q-11 36 -16 81t-5.5 80t-0.5 134z" />
<glyph unicode="V" horiz-adv-x="1236" d="M16 1446h285l324 -1141l315 1141h279l-412 -1446h-365z" />
<glyph unicode="W" horiz-adv-x="1705" d="M25 1446h276l197 -1102l225 1102h252l229 -1102l203 1102h279l-318 -1446h-315l-203 1006l-209 -1006h-315z" />
<glyph unicode="X" horiz-adv-x="1323" d="M18 0l486 784l-416 662h311l263 -414l251 414h314l-408 -662l490 -784h-310l-337 535l-330 -535h-314z" />
<glyph unicode="Y" horiz-adv-x="1280" d="M20 1446h308l313 -598l315 598h304l-488 -875v-571h-268v571z" />
<glyph unicode="Z" horiz-adv-x="1236" d="M49 0v221l791 983h-723v242h1061v-229l-760 -973h760v-244h-1129z" />
<glyph unicode="[" horiz-adv-x="583" d="M121 -295v1890h420v-149h-199v-1593h199v-148h-420z" />
<glyph unicode="\" horiz-adv-x="980" d="M27 1446h243l686 -1446h-243z" />
<glyph unicode="]" horiz-adv-x="583" d="M41 -145h199v1593h-199v147h420v-1890h-420v150z" />
<glyph unicode="^" horiz-adv-x="1482" d="M188 582l428 864h258l422 -864h-268l-278 630l-283 -630h-279z" />
<glyph unicode="_" horiz-adv-x="1024" d="M-20 -266h1064v-189h-1064v189z" />
<glyph unicode="`" horiz-adv-x="555" d="M72 1446h305l106 -272h-182z" />
<glyph unicode="a" horiz-adv-x="1110" d="M53 297q0 162 140 256q39 27 87.5 45t76 24t94.5 19q199 41 282 70q0 55 -14 84q-35 69 -162 69q-131 0 -180 -63q-27 -33 -27 -90l-250 14q7 150 111 236q112 94 338 94q218 0 330 -80q50 -36 73 -82q27 -53 27 -182v-545q0 -60 7.5 -89t37.5 -77h-291l-6 80 q-43 -37 -94 -57q-105 -48 -207 -48q-30 0 -61 4t-83.5 17.5t-101.5 48.5t-82 88q-45 76 -45 157v7zM313 307q0 -51 41 -86t127 -35q91 0 154 37t84 80q14 29 14 94v113q-79 -39 -194 -57q-12 -2 -41 -6.5t-45 -7.5t-39 -10.5t-41 -18.5q-60 -39 -60 -103z" />
<glyph unicode="b" horiz-adv-x="1193" d="M131 0v1446h244l2 -508q13 13 33 29q115 88 260 88q170 0 297 -129q153 -158 153 -408q0 -154 -63.5 -286.5t-188.5 -202.5q-106 -60 -213 -60q-127 0 -235 92q-24 21 -45 45v-106h-244zM373 530q0 -198 104 -278q70 -49 146 -49q18 0 38 3.5t47 13.5t54 31.5t47 53.5 q24 37 38.5 88t17.5 80t3 49q1 20 -1 48t-15.5 75t-38.5 82q-33 49 -87 76.5t-114 27.5q-95 0 -159 -67q-80 -82 -80 -234z" />
<glyph unicode="c" horiz-adv-x="1058" d="M49 512q0 201 111 344q23 31 54 60t80.5 63t120.5 55t152 21q104 0 191 -37q64 -27 134.5 -88.5t115.5 -165.5l-220 -102q-18 61 -61 104q-70 70 -172 70q-108 0 -176 -80q-76 -88 -76 -238q0 -65 14 -112q24 -93 87.5 -150t156.5 -57q48 0 88.5 16t65.5 37.5t45 51 t29.5 50t17.5 39.5q1 2 1.5 3.5t0.5 2.5l209 -110q-27 -73 -66 -125q-68 -93 -174 -144t-223 -51q-108 0 -213 47q-77 35 -134.5 92t-86.5 111t-46.5 117.5t-21.5 102t-4 73.5z" />
<glyph unicode="d" horiz-adv-x="1193" d="M74 492q0 90 18.5 169.5t48 136.5t68.5 103t76 74t75 45q83 35 179 35q104 0 186 -45q25 -14 51 -33q8 -6 16 -14t14 -15l7 -8v506h244v-1446h-244v98q-5 -5 -14.5 -16t-14.5 -16q-102 -97 -256 -97q-100 0 -190 43q-47 22 -89 56.5t-83.5 90.5t-66.5 142t-25 191z M330 518q0 -60 13 -115.5t40.5 -103.5t76 -77t113.5 -29q99 0 160 69q78 87 78 235v11q0 133 -45 211q-19 37 -53 63q-56 45 -138 45q-68 0 -124 -36q-41 -26 -68 -68t-37 -87t-13 -70.5t-3 -47.5z" />
<glyph unicode="e" d="M70 518q0 140 45 246q16 36 37.5 70t62 76t89 72.5t122 51.5t158.5 21q81 0 150.5 -19t118 -51t80 -62.5t54.5 -64.5q92 -141 100 -395h-757q12 -93 65 -156q80 -98 223 -98q145 0 234 94q16 16 35 47l209 -121q-36 -52 -95 -106q-26 -24 -59 -47t-84 -49t-119.5 -42 t-142.5 -16q-219 0 -367 137q-159 151 -159 412zM338 643h479q-6 49 -20 84q-61 131 -209 131q-58 0 -103 -18q-40 -16 -70 -44t-45 -60t-22 -52.5t-10 -40.5z" />
<glyph unicode="f" horiz-adv-x="641" d="M8 850v174h154v119q0 85 6 119q16 93 91 139.5t233 46.5q61 0 139 -10v-209q-18 6 -78 6q-42 0 -71 -10t-43 -22t-21.5 -35.5t-8.5 -37.5t-1 -41v-6v-59h223v-174h-223v-850h-246v850h-154z" />
<glyph unicode="g" horiz-adv-x="1193" d="M70 547q0 132 34 219q52 133 167.5 211t260.5 78q127 0 218 -66q42 -31 71 -74v109h244v-842q0 -4 1 -58v-45v-25q-1 -14 -4.5 -59.5t-10.5 -68t-20 -55t-32 -57.5q-51 -70 -158 -113t-270 -43q-297 0 -405 154q-39 58 -64 168l271 -3q10 -33 24 -51q52 -76 185 -76 q160 0 213 97q4 8 7.5 16.5t6 15.5t4.5 18t3.5 17.5t2.5 20.5t1.5 20.5t0.5 24.5v25.5v30v32.5q-123 -109 -309 -109q-108 0 -186 37q-46 20 -87 52t-81 84.5t-64 133.5t-24 181zM322 553q0 -122 65 -195q33 -33 66 -49q52 -26 122 -26q118 0 183 69q69 69 69 193 q0 68 -16 114q-8 26 -21.5 51.5t-40 56.5t-72.5 50t-104 19q-111 0 -182 -78q-69 -75 -69 -205z" />
<glyph unicode="h" horiz-adv-x="1193" d="M129 0v1446h246v-526q31 36 98 75q102 60 225 60q90 0 172 -34t131 -101q30 -42 44.5 -94.5t17 -89.5t2.5 -103v-633h-242v563v15q0 50 -2 76t-17 62t-46 62q-48 43 -127 43q-124 0 -203 -98q-34 -42 -45 -86q-8 -31 -8 -88v-549h-246z" />
<glyph unicode="i" horiz-adv-x="512" d="M133 0v1024h244v-1024h-244zM133 1184v248h244v-248h-244z" />
<glyph unicode="j" horiz-adv-x="512" d="M2 -106q2 0 14 1t24 3t28 7t28 13q9 5 15.5 11.5t11 12t7.5 16t4.5 15.5t2 20.5t0.5 21.5v27v30v952h242v-1108v-9.5v-13t-0.5 -15t-1.5 -17.5t-3 -18t-5 -19.5t-7 -19.5t-9.5 -20.5t-13.5 -19t-17 -18.5q-35 -33 -103 -56.5t-160 -23.5q-21 0 -57 4v224zM137 1186v250 h242v-250h-242z" />
<glyph unicode="k" horiz-adv-x="1110" d="M131 0v1446h244v-813l399 391h313l-391 -391l430 -633h-299l-309 459l-143 -142v-317h-244z" />
<glyph unicode="l" horiz-adv-x="512" d="M133 0v1446h250v-1446h-250z" />
<glyph unicode="m" horiz-adv-x="1792" d="M129 0v1024h246l2 -115q17 24 33 37q39 37 116.5 73t171.5 36q90 0 166.5 -40.5t118.5 -115.5q41 52 94 88q101 68 236 68q124 0 215.5 -56.5t122.5 -171.5q14 -55 14 -180v-647h-244v627q0 18 -2 36.5t-11.5 49.5t-26.5 54t-51.5 40.5t-80.5 17.5q-43 0 -94.5 -22.5 t-87.5 -81.5q-22 -35 -33.5 -79t-13.5 -76.5t-2 -84.5v-481h-244v573q0 11 -1 34t-1 34q0 92 -55 143q-43 39 -111 39q-71 0 -129 -49q-36 -31 -58 -71.5t-31 -92t-11 -87.5t-2 -93v-430h-246z" />
<glyph unicode="n" d="M129 0v1024h248v-121q16 24 45 53q43 41 105.5 65t99 29t65.5 5q101 0 170.5 -39t102.5 -86q12 -17 21.5 -38t15.5 -37t10.5 -43.5t7 -40.5t3.5 -45.5t1 -40.5v-44.5v-38.5v-602h-242v522q0 119 -10 158q-10 42 -31 71t-47.5 41.5t-48 17.5t-43.5 5q-73 0 -129 -47 q-55 -45 -75.5 -117t-20.5 -207v-444h-248z" />
<glyph unicode="o" horiz-adv-x="1193" d="M72 516q0 110 45 229q15 36 36.5 72t63 81t91.5 78t125.5 56t162.5 23q120 0 225 -47q38 -16 74.5 -39.5t79 -66t74.5 -94t53 -128t22 -164.5q0 -128 -41 -229q-14 -37 -36 -73.5t-63 -82.5t-91 -80.5t-126 -58t-163 -23.5q-127 0 -231 47q-36 16 -72.5 40t-79 67.5 t-74.5 96.5t-53.5 130.5t-21.5 165.5zM328 522q0 -80 20 -139q6 -18 16.5 -38.5t32.5 -48.5t49 -49.5t68.5 -36.5t89.5 -15q131 1 200 97q64 90 64 210v18q-2 83 -32.5 152.5t-94 115.5t-149.5 46q-78 0 -139 -39q-50 -33 -87.5 -101t-37.5 -172z" />
<glyph unicode="p" horiz-adv-x="1193" d="M131 -334v1358h246v-92q117 123 280 123q200 0 328 -150q137 -163 137 -401q0 -203 -102 -346q-43 -60 -95.5 -100.5t-105 -58t-90 -24t-74.5 -6.5q-153 0 -278 115v-418h-246zM373 518q0 -66 14 -121q24 -89 86 -141.5t152 -52.5q72 0 127 37q118 78 118 276 q0 76 -18 131q-27 76 -90.5 124t-143.5 48q-64 0 -126 -37q-114 -80 -119 -264z" />
<glyph unicode="q" d="M51 502q0 119 33 219q47 145 164 239.5t266 94.5q140 0 231 -82q27 -24 52 -58v109h243v-1358h-243l-2 430q-24 -25 -44 -41.5t-56 -39t-84.5 -34.5t-106.5 -12q-203 0 -326 144q-127 152 -127 389zM303 504q0 -48 8.5 -91.5t27.5 -83.5t47.5 -69.5t70.5 -47t94 -17.5 q79 0 139 45q46 34 77 102q30 65 30 162v6q0 117 -52 197q-32 45 -63 67q-59 41 -133 41q-77 0 -133 -41q-113 -83 -113 -270z" />
<glyph unicode="r" horiz-adv-x="724" d="M131 0v1024h238v-145q27 53 61 84q28 28 67 46.5t76.5 26t60 9.5t40.5 1h20v-251q-17 0 -30.5 -0.5t-42 -4t-51.5 -10.5t-53 -21t-52.5 -33.5t-44 -50t-33.5 -69.5q-18 -57 -18 -168v-438h-238z" />
<glyph unicode="s" horiz-adv-x="1067" d="M45 154l184 149q28 -34 47 -51q40 -34 98.5 -54t90.5 -23t59 -3q121 0 174 61q27 27 27 60q0 22 -16 43q-6 8 -11.5 14t-14.5 10.5t-14.5 7.5t-19 6.5t-20.5 5t-27 5.5t-29 6q-22 5 -92 17.5t-108 21.5q-20 5 -30.5 8t-44.5 16t-56.5 26t-53.5 37.5t-50.5 51.5t-33.5 67 t-14 85q0 81 47 158q46 72 144 124t249 52q41 0 83.5 -5.5t107 -22.5t130.5 -59t120 -104l-174 -162q-20 44 -64 82q-85 74 -215 74q-80 0 -125 -31q-45 -30 -45 -75q1 -23 13 -40.5t20 -23.5q37 -27 176 -51q144 -26 166 -31q108 -24 162 -63q41 -30 76.5 -86t35.5 -138 q0 -75 -34 -139q-20 -39 -53 -73.5t-83.5 -67t-125.5 -51.5t-164 -19q-224 0 -394 105q-53 35 -98 80z" />
<glyph unicode="t" horiz-adv-x="641" d="M8 850v174h150v365h245v-365h220v-174h-220v-465q0 -4 -0.5 -22.5t0 -28.5t1.5 -27.5t3.5 -29t8 -24t12.5 -20.5q26 -30 94 -30q54 0 101 12v-207q-6 -1 -29 -4t-41 -5.5t-48 -4.5t-59 -2q-176 0 -245 82q-26 32 -31 59q-12 40 -12 195v522h-150z" />
<glyph unicode="u" horiz-adv-x="1193" d="M127 349v44.5v40.5v590h248v-553q0 -104 13 -145q18 -59 69 -88q51 -31 118 -31q78 0 127 36.5t72 78.5q19 36 28 91t10 85t1 92v434h246v-1024h-246l-2 104q-140 -129 -330 -129q-204 0 -295 136q-12 18 -21.5 38.5t-15.5 36t-10.5 42t-7 38t-3.5 44t-1 39.5z" />
<glyph unicode="v" horiz-adv-x="980" d="M27 1024h254l213 -705l208 705h256l-337 -1024h-263z" />
<glyph unicode="w" horiz-adv-x="1536" d="M35 1024h256l178 -700l190 700h220l188 -700l182 700h256l-307 -1024h-244l-184 653l-195 -653h-243z" />
<glyph unicode="x" horiz-adv-x="1024" d="M18 0l353 549l-312 475h289l168 -258l162 258h293l-309 -475l350 -549h-283l-213 324l-205 -324h-293z" />
<glyph unicode="y" horiz-adv-x="980" d="M25 1024h264l229 -764l193 764h252l-261 -893q-2 -7 -16.5 -57.5t-20.5 -70t-21 -65.5t-26.5 -71.5t-28.5 -60t-35 -58t-38 -39.5q-44 -36 -93 -48.5t-116 -12.5q-77 0 -145 14v213q34 -4 63 -4q84 0 127 35q30 28 43 74z" />
<glyph unicode="z" horiz-adv-x="1024" d="M63 0v188l553 617h-497v219h821v-190l-541 -617h541v-217h-877z" />
<glyph unicode="{" horiz-adv-x="614" d="M29 573v154q72 5 114 29q36 22 49 61t13 127l-2 316v12q0 115 14 170q13 53 45 88q35 40 83.5 56t135.5 16h107l2 -148h-35q-69 0 -96 -31q-18 -25 -23 -45q-8 -31 -8 -145v-307q0 -127 -34 -183t-134 -96q35 -9 53.5 -18.5t40.5 -30.5q42 -36 58 -84t16 -139v-309 q0 -115 8 -144q21 -78 125 -78h29v-147h-107q-91 0 -138.5 15.5t-82.5 56.5q-33 39 -45 88q-14 55 -14 172v10l2 317q0 104 -23 148q-19 32 -53 47.5t-100 21.5z" />
<glyph unicode="|" horiz-adv-x="505" d="M139 -293v1888h223v-1888h-223z" />
<glyph unicode="}" horiz-adv-x="614" d="M25 -156l34 -2q64 -3 95 33q18 21 24 45q8 31 8 146v307q0 126 34 182t134 96q-36 9 -54.5 18t-41.5 29q-41 37 -56.5 85.5t-15.5 140.5v309q0 107 -10 143q-18 78 -123 78h-28v148h106q89 0 136 -16t83 -56q35 -41 47 -88q15 -70 15 -172v-10l-2 -318q0 -113 20 -149 q17 -31 53.5 -46.5t102.5 -21.5v-154q-49 -5 -70.5 -10t-44.5 -18q-35 -22 -48 -61t-13 -128l2 -315v-12q0 -102 -15 -170q-12 -50 -47 -88q-34 -40 -82 -56t-135 -16h-108v147z" />
<glyph unicode="~" horiz-adv-x="1482" d="M147 651q38 53 59 76.5t50 48.5q92 80 215 80q52 0 105 -16t155 -62l105 -47q69 -32 100 -41.5t61 -9.5q73 0 136 47q29 20 50.5 42t61.5 71l92 -205q-46 -57 -76 -85.5t-73 -57.5q-92 -60 -189 -60q-49 0 -101.5 16.5t-145.5 61.5l-72 35q-127 61 -213 61q-38 0 -68 -12 q-34 -13 -60.5 -37t-80.5 -88l-20 -25z" />
<glyph unicode="&#xa1;" horiz-adv-x="512" d="M82 0v555l78 532h114l76 -532v-555h-268zM82 1163v283h268v-283h-268z" />
<glyph unicode="&#xa2;" horiz-adv-x="1024" d="M45 522q0 96 25.5 182.5t76.5 160.5t136.5 127.5t197.5 76.5v203h160v-203q47 -6 88.5 -20t72 -29.5t60 -42.5t47 -45.5t39 -51t30.5 -48t26 -46.5l-218 -102q-45 107 -104 145q-15 11 -45 17v-631q35 10 64.5 31t46.5 43t30 48t17.5 41t7.5 28l209 -113 q-29 -74 -62 -123q-40 -59 -96 -101t-90.5 -56t-65.5 -21q-7 -1 -27 -4.5t-32 -5.5v-203h-160v203q-84 12 -153 44t-113 73t-77 94t-49.5 99.5t-26.5 97t-12.5 79.5t-2.5 53zM297 532q0 -34 3.5 -66t15 -72t30.5 -71.5t52.5 -59t78.5 -40.5v625q-48 -24 -65 -39 q-115 -92 -115 -277z" />
<glyph unicode="&#xa3;" horiz-adv-x="1280" d="M100 217q0 67 29 117q28 52 83.5 79t117.5 27q66 0 149 -28q6 21 6 32q0 54 -30 95q-5 7 -27 24h-266v217h164q-86 108 -86 248q0 176 122 277q145 118 347 118q123 0 229 -51q124 -59 173.5 -162.5t49.5 -255.5q0 -45 -2 -65h-266q10 45 10 86q0 49 -14 90 q-23 58 -75 93.5t-114 35.5q-45 0 -82 -16q-108 -53 -108 -174q0 -18 2.5 -36t8 -35t11.5 -32t14.5 -30t15 -25.5t15.5 -23t13.5 -18.5t11.5 -15l8 -9h252v-217h-160q13 -99 13 -147q0 -59 -13 -123q85 -60 142 -60q39 0 63 27q21 21 31.5 53t12 53.5t1.5 59.5v49h265 q0 -71 -9 -145q-3 -25 -11.5 -63.5t-39 -110t-72.5 -109.5q-72 -63 -182 -63q-64 0 -160 32q-27 11 -74.5 35t-58.5 29q-6 -3 -28.5 -16t-29 -16.5t-26.5 -14t-29 -14t-27 -11t-30 -10.5t-29 -7t-32.5 -5.5t-32.5 -1.5q-61 0 -113 22q-63 27 -98 84.5t-35 126.5zM295 205 q0 -14 15 -29t42 -14q20 0 42.5 12.5t35.5 42.5q-45 35 -80 35q-27 0 -41 -15.5t-14 -31.5z" />
<glyph unicode="&#xa4;" horiz-adv-x="1363" d="M63 221l160 158q-100 143 -100 315q0 92 22.5 163.5t77.5 152.5l-157 155l143 144l158 -156q140 100 317 100q168 0 311 -100l160 158l145 -146l-159 -157q55 -87 76.5 -157t21.5 -157q0 -88 -23 -161t-77 -156l159 -160l-145 -143l-160 159q-92 -56 -158 -76t-155 -20 q-91 0 -160.5 22t-152.5 77l-160 -158zM346 696q0 -145 97.5 -242.5t242.5 -97.5q138 0 235 97.5t97 236.5q0 146 -96.5 245t-239.5 99q-142 0 -239 -97.5t-97 -240.5z" />
<glyph unicode="&#xa5;" horiz-adv-x="1236" d="M6 1405h305l305 -584l314 584h301l-297 -524h172v-203h-291l-70 -125h361v-203h-361v-350h-264v350h-362v203h360l-63 125h-297v203h182z" />
<glyph unicode="&#xa6;" horiz-adv-x="505" d="M141 -295v821h224v-821h-224zM141 770v823h224v-823h-224z" />
<glyph unicode="&#xa7;" horiz-adv-x="1323" d="M88 770q0 54 16.5 100t48 83t67.5 65t85 57q-80 71 -80 180q0 76 36 136t95 94t126.5 51.5t138.5 17.5q127 0 254 -35.5t231 -101.5l-115 -172q-5 2 -32 14.5t-34.5 15.5t-32.5 14t-35 14.5t-33 12t-35.5 12t-33.5 9t-36.5 7.5t-34.5 4t-37 2q-19 0 -41 -3t-47.5 -9.5 t-42 -21t-16.5 -34.5q0 -9 2.5 -17.5t8.5 -16.5l10.5 -14t15 -12.5t16 -10t18.5 -9.5t17 -8t17.5 -7.5t15.5 -6.5l190 -82q169 -74 238 -119q188 -122 188 -303q0 -108 -60 -194.5t-159 -133.5q84 -91 84 -188q0 -75 -38 -134t-99.5 -92.5t-130 -50t-138.5 -16.5 q-130 0 -268.5 43.5t-241.5 118.5l119 168q191 -125 383 -125q23 0 45 4t44.5 12.5t36 26.5t13.5 43q0 28 -41 57t-106 57t-143.5 59.5t-157.5 74t-144 91.5t-106 120t-41 153zM348 811q0 -28 12 -53t26 -40.5t43 -34t44.5 -26t48.5 -22.5q44 -20 115 -51q120 -56 235 -113 q39 29 65 72.5t26 87.5q0 51 -27 88q-24 33 -91 72.5t-122 63t-148 60t-106 41.5q-52 -19 -86.5 -56t-34.5 -89z" />
<glyph unicode="&#xa8;" horiz-adv-x="555" d="M-45 1202v244h231v-244h-231zM365 1202v244h235v-244h-235z" />
<glyph unicode="&#xa9;" horiz-adv-x="1675" d="M109 723q0 200 97 367.5t265 264.5t369 97q117 0 227.5 -36.5t200 -103t157.5 -154.5t105 -197t37 -224q0 -157 -56 -295t-152.5 -236t-232.5 -155t-290 -57q-198 0 -365.5 97t-264.5 264.5t-97 367.5zM193 721q0 -135 50.5 -255.5t136.5 -207t205.5 -137.5t252.5 -51 q130 0 249.5 51.5t206.5 137.5t139 204t52 246q0 141 -49.5 264.5t-135 212t-206 139.5t-256.5 51q-175 0 -323.5 -87.5t-235 -238.5t-86.5 -329zM424 719q0 205 120 341t302 136q109 0 184 -37.5t160 -132.5l-129 -133q-60 69 -105.5 95t-105.5 26q-100 0 -160.5 -80.5 t-60.5 -212.5q0 -133 59.5 -212t159.5 -79q64 0 112 26t101 89l129 -129q-83 -93 -162 -132.5t-182 -39.5q-188 0 -305 131.5t-117 343.5z" />
<glyph unicode="&#xaa;" horiz-adv-x="681" d="M80 1044q0 78 57 127q39 31 170.5 59.5t147.5 35.5v10q0 76 -97 76q-60 0 -84 -21.5t-24 -62.5l-144 10q0 6 2 19.5t10 36t19 38.5q62 87 213 90q65 0 131 -19t97 -71q16 -24 16 -72v-337q0 -31 4 -47t20 -44h-141q-13 40 -14 46q-88 -58 -182 -58q-82 0 -141.5 49 t-59.5 135zM229 1044q0 -27 21.5 -43t60.5 -16q11 0 26 2t45 9.5t49.5 30.5t19.5 58v62q-57 -16 -95 -25q-7 -1 -26.5 -4t-32 -6.5t-25.5 -9.5q-43 -22 -43 -58z" />
<glyph unicode="&#xab;" horiz-adv-x="894" d="M121 500v288l291 230v-230l-181 -147l181 -141v-228zM492 500v288l292 234v-234l-176 -145l176 -143v-230z" />
<glyph unicode="&#xac;" horiz-adv-x="1482" d="M141 528v224h1159v-719h-266v495h-893z" />
<glyph unicode="&#xad;" horiz-adv-x="761" d="M84 506v231h592v-231h-592z" />
<glyph unicode="&#xae;" horiz-adv-x="1693" d="M119 723q0 200 97 367.5t264.5 264.5t367.5 97q196 0 364 -96t266.5 -261t98.5 -358q0 -157 -56 -295t-152.5 -236t-232.5 -155t-290 -57q-198 0 -365.5 97t-264.5 264.5t-97 367.5zM201 721q0 -133 51 -254t137 -208t205.5 -138t251.5 -51q174 0 323.5 86.5t237.5 234.5 t88 320q0 187 -84.5 339.5t-233 239t-331.5 86.5q-175 0 -323.5 -87.5t-235 -238.5t-86.5 -329zM539 274v914h301q155 0 221 -41q57 -35 90 -101.5t33 -146.5q0 -88 -36.5 -145.5t-119.5 -100.5l160 -379h-209l-129 347h-119l-2 -347h-190zM729 780h119q75 0 109 28.5 t34 90.5q0 60 -33.5 88.5t-103.5 28.5h-125v-236z" />
<glyph unicode="&#xaf;" horiz-adv-x="555" d="M-72 1200v184h699v-184h-699z" />
<glyph unicode="&#xb0;" horiz-adv-x="724" d="M10 1192q0 147 102.5 250.5t249.5 103.5q148 0 250.5 -103t102.5 -251q0 -145 -104 -248.5t-249 -103.5t-248.5 103.5t-103.5 248.5zM215 1192q0 -60 43.5 -104t103.5 -44t104 44t44 104q0 61 -43.5 103t-104.5 42q-62 0 -104.5 -42t-42.5 -103z" />
<glyph unicode="&#xb1;" horiz-adv-x="1482" d="M190 0v219h1102v-219h-1102zM190 748v219h418v407h266v-407h418v-219h-418v-416h-266v416h-418z" />
<glyph unicode="&#xb2;" horiz-adv-x="768" d="M70 1042q1 4 3.5 31t5 48.5t11.5 56.5t21.5 61.5t35.5 57t52.5 51t74.5 34t99 13.5q84 1 151 -29t108 -93.5t42 -150.5q1 -42 -8.5 -82.5t-23.5 -73t-41.5 -70t-50.5 -63t-64.5 -63t-68.5 -60t-77 -62.5q-20 -16 -31 -25h383v-146h-618v135q40 28 86 62q94 73 169 150.5 t105 125.5q49 78 49 158q0 67 -34.5 97t-75.5 30q-27 0 -47.5 -7t-33 -22t-21 -30t-12.5 -38.5t-6 -38.5t-3 -39.5t-2 -31.5z" />
<glyph unicode="&#xb3;" horiz-adv-x="768" d="M43 778h178q5 -65 20 -97q33 -69 119 -71q62 -3 102.5 35.5t43.5 102.5q1 37 -13.5 64.5t-33 40.5t-45 20.5t-40 8.5t-26.5 1h-51v145h55q135 0 135 100q0 36 -14 60t-35.5 34t-37.5 13.5t-31 3.5q-35 0 -59.5 -12.5t-38 -36t-20.5 -46t-11 -54.5l-174 38q11 76 49 134 q47 71 118 102t146 31q91 1 154.5 -32.5t99.5 -88.5q37 -58 37 -127q0 -107 -88 -162q-12 -8 -60 -24q36 -13 57 -23.5t50.5 -34t44 -62t14.5 -91.5q0 -93 -46 -160t-117 -98t-158 -31q-43 0 -84 8t-84.5 26.5t-79.5 55t-56 86.5q-20 51 -20 141z" />
<glyph unicode="&#xb4;" horiz-adv-x="555" d="M74 1174l102 272h305l-221 -272h-186z" />
<glyph unicode="&#xb5;" horiz-adv-x="1222" d="M154 -442v1464h252v-473q0 -128 8 -185.5t32 -93.5q23 -35 64.5 -56t87.5 -21q95 0 148 80t53 225v94v430h250v-713q0 -72 14.5 -99.5t54.5 -27.5q14 0 58 17v-201q-70 -18 -136 -18q-91 0 -145 45q-24 18 -36.5 39.5t-31.5 76.5q-40 -89 -91.5 -125t-137.5 -36 q-70 0 -117.5 27.5t-87.5 90.5l6 -540h-245z" />
<glyph unicode="&#xb6;" horiz-adv-x="1310" d="M145 1028q0 190 121 305q56 53 129 80q48 19 96 26t132 7h477v-143h-72v-1645h-151v1645h-263v-1645h-151v979q-48 9 -90 25q-106 41 -167 139t-61 227z" />
<glyph unicode="&#xb7;" horiz-adv-x="448" d="M88 444v299h272v-299h-272z" />
<glyph unicode="&#xb8;" horiz-adv-x="555" d="M72 -188l204 213h93l-93 -119q38 3 79 -6.5t61 -18.5q31 -15 49 -43.5t18 -62.5q0 -43 -28 -78q-67 -78 -289 -78q-55 0 -84 2l2 64q1 0 5.5 -1t8.5 -1.5t11 0.5q41 -4 96 8l5 1l8 4t10 6t10 8.5t7 11t3 14.5q-1 16 -11 26.5t-31 15t-41 6t-52 1.5q-17 0 -41 -4v31z" />
<glyph unicode="&#xb9;" horiz-adv-x="768" d="M131 1096v121l43 2q20 1 26.5 1.5t31.5 4t38.5 9.5t36 19t35.5 30.5t24.5 46t14.5 63.5h145v-916h-174v527q0 7 0.5 21t0 18.5t-2 14.5t-5 13.5t-10 9t-16.5 7.5t-24.5 4t-34.5 2z" />
<glyph unicode="&#xba;" horiz-adv-x="681" d="M49 1155q0 128 79.5 217t209.5 90q134 3 215.5 -86.5t79.5 -222.5q0 -45 -17 -104q-11 -35 -32 -67.5t-53.5 -63t-82.5 -49.5t-110 -19q-129 0 -209 89.5t-80 215.5zM199 1157q0 -25 8 -65q5 -18 13 -35t23 -36t41 -30.5t58 -11.5q58 0 101.5 45.5t43.5 136.5 q0 65 -33 118t-104 56q-56 2 -103.5 -42.5t-47.5 -135.5z" />
<glyph unicode="&#xbb;" horiz-adv-x="894" d="M106 264v232l177 147l-177 141v232l293 -232v-288zM481 268v228l178 149l-178 139v230l291 -230v-288z" />
<glyph unicode="&#xbc;" horiz-adv-x="1792" d="M131 1096v121l43 2q20 1 26.5 1.5t31.5 4t38.5 9.5t36 19t35.5 30.5t24.5 46t14.5 63.5h145v-916h-174v527q0 7 0.5 21t0 18.5t-2 14.5t-5 13.5t-10 9t-16.5 7.5t-24.5 4t-34.5 2zM487 -12l646 1401l139 -66l-643 -1399zM1069 207v129l397 569h170v-555h115v-147h-121 v-203h-164v207h-397zM1251 352h222l4 346z" />
<glyph unicode="&#xbd;" horiz-adv-x="1792" d="M131 1096v121l43 2q20 1 26.5 1.5t31.5 4t38.5 9.5t36 19t35.5 30.5t24.5 46t14.5 63.5h145v-916h-174v527q0 7 0.5 21t0 18.5t-2 14.5t-5 13.5t-10 9t-16.5 7.5t-24.5 4t-34.5 2zM469 -12l645 1401l139 -66l-643 -1399zM1096 565q5 148 56 230q78 122 247 125 q69 1 123.5 -19t86 -49.5t52.5 -68.5t28.5 -72t8.5 -64q3 -125 -71.5 -226t-295.5 -276h385v-145h-618v137q126 85 227.5 184t136.5 158q45 75 45 152q0 67 -34.5 97t-75.5 30q-29 1 -50 -8.5t-32 -20.5t-19.5 -35t-11 -36.5t-6.5 -41.5q0 -3 -3 -31.5t-3 -31.5z" />
<glyph unicode="&#xbe;" horiz-adv-x="1792" d="M43 778h178q5 -65 20 -97q33 -69 119 -71q62 -3 102.5 35.5t43.5 102.5q1 37 -13.5 64.5t-33 40.5t-45 20.5t-40 8.5t-26.5 1h-51v145h55q135 0 135 100q0 36 -14 60t-35.5 34t-37.5 13.5t-31 3.5q-35 0 -59.5 -12.5t-38 -36t-20.5 -46t-11 -54.5l-174 38q11 76 49 134 q47 71 118 102t146 31q91 1 154.5 -32.5t99.5 -88.5q37 -58 37 -127q0 -107 -88 -162q-12 -8 -60 -24q36 -13 57 -23.5t50.5 -34t44 -62t14.5 -91.5q0 -93 -46 -160t-117 -98t-158 -31q-43 0 -84 8t-84.5 26.5t-79.5 55t-56 86.5q-20 51 -20 141zM537 -12l645 1401l137 -66 l-641 -1399zM1069 207v129l397 569h170v-555h115v-147h-121v-203h-164v207h-397zM1251 352h222l4 346z" />
<glyph unicode="&#xbf;" d="M55 403q0 195 164 324q15 12 58 40.5t65 47.5q41 34 60.5 76.5t19.5 124.5q0 28 -6 59h241q3 -148 -12 -227q-19 -107 -74 -166q-25 -25 -74 -56.5t-67 -45.5q-94 -74 -94 -174q0 -37 20 -84q28 -54 83 -83.5t118 -29.5q112 0 174 78q57 72 62 192l247 -30 q-9 -133 -53 -222q-21 -44 -53.5 -83.5t-84.5 -80t-132 -64.5t-176 -24q-93 0 -181 27q-139 42 -222 149t-83 252zM399 1165v281h273v-281h-273z" />
<glyph unicode="&#xc0;" horiz-adv-x="1323" d="M12 0l490 1446h307l494 -1446h-289l-84 283h-543l-84 -283h-291zM379 1833h291l110 -248h-182zM459 520h399l-199 666z" />
<glyph unicode="&#xc1;" horiz-adv-x="1323" d="M12 0l490 1446h307l494 -1446h-289l-84 283h-543l-84 -283h-291zM459 520h399l-199 666zM547 1587l110 246h293l-221 -246h-182z" />
<glyph unicode="&#xc2;" horiz-adv-x="1323" d="M12 0l490 1446h307l494 -1446h-289l-84 283h-543l-84 -283h-291zM336 1583l207 250h239l215 -250h-247l-86 115l-86 -115h-242zM459 520h399l-199 666z" />
<glyph unicode="&#xc3;" horiz-adv-x="1323" d="M12 0l490 1446h307l494 -1446h-289l-84 283h-543l-84 -283h-291zM303 1575q1 2 3 18t5.5 38t7.5 36q5 16 12 31t24 41t37.5 45t53.5 33t72 14q32 0 72 -9.5t61.5 -18t32.5 -13.5q87 -35 121 -35q21 0 39 12q7 4 12.5 9t8.5 8.5t5.5 11l3.5 10.5t3.5 13l3.5 14l157 -2 q-16 -164 -102 -225q-38 -33 -105 -33q-58 0 -172 43q-90 37 -122 35q-21 0 -33 -6q-32 -17 -41 -70h-160zM459 520h399l-199 666z" />
<glyph unicode="&#xc4;" horiz-adv-x="1323" d="M12 0l490 1446h307l494 -1446h-289l-84 283h-543l-84 -283h-291zM350 1581v252h230v-252h-230zM459 520h399l-199 666zM760 1581v252h231v-252h-231z" />
<glyph unicode="&#xc5;" horiz-adv-x="1323" d="M12 0l490 1446h307l494 -1446h-289l-84 283h-543l-84 -283h-291zM459 520h399l-199 666zM461 1765q0 85 61 146t148 61q86 0 146.5 -62t60.5 -147q0 -86 -60.5 -146.5t-148.5 -60.5q-86 0 -146.5 60.5t-60.5 148.5zM582 1763q2 -35 27.5 -60.5t60.5 -25.5q36 2 60 27 t24 61q0 35 -25.5 59.5t-60.5 24.5t-60.5 -25.5t-25.5 -60.5z" />
<glyph unicode="&#xc6;" horiz-adv-x="2134" d="M12 0l856 1446h1186v-242h-754v-344h656v-237h-656v-377h785v-246h-1057v338h-508l-192 -338h-316zM657 582h371v661z" />
<glyph unicode="&#xc7;" horiz-adv-x="1409" d="M76 748q0 154 47 288q81 223 256.5 336t386.5 111q173 -1 293.5 -66.5t191.5 -167.5q54 -79 99 -213l-269 -69q-4 39 -22 81t-52.5 86t-97 72.5t-143.5 28.5q-57 0 -112 -17t-106.5 -56t-91 -95.5t-63 -141.5t-24.5 -188q-1 -130 32.5 -231.5t90.5 -162.5t126.5 -92 t147.5 -32q67 -1 125 22t95 56t67 76t44.5 75.5t22.5 61.5l256 -107l-8 -20q-24 -60 -55 -111t-60 -88.5t-68 -69t-68 -51.5t-71 -37t-66.5 -25t-65.5 -16t-55.5 -9.5t-48.5 -5.5q-18 -2 -26 -3l-49 -61h17q28 0 56.5 -5.5t60 -18t52.5 -38.5t23 -63q0 -47 -29 -82 q-62 -80 -286 -80h-13q-57 0 -73 2v64q7 -2 32 -2q132 0 132 51q0 17 -11 28t-33.5 16t-41.5 6t-50 1q-25 0 -41 -4v31l154 157q-5 1 -30.5 5t-32.5 5.5t-29.5 6t-32.5 7t-30.5 8t-33 10t-30 11.5t-32.5 14.5t-30 16.5q-146 86 -238.5 265t-88.5 430z" />
<glyph unicode="&#xc8;" horiz-adv-x="1280" d="M160 0v1446h1028v-242h-762v-340h698v-233h-698v-387h813v-244h-1079zM356 1833h291l113 -248h-185z" />
<glyph unicode="&#xc9;" horiz-adv-x="1280" d="M160 0v1446h1028v-242h-762v-340h698v-233h-698v-387h813v-244h-1079zM526 1587l109 246h295l-221 -246h-183z" />
<glyph unicode="&#xca;" horiz-adv-x="1280" d="M160 0v1446h1028v-242h-762v-340h698v-233h-698v-387h813v-244h-1079zM315 1583l207 250h240l215 -250h-248l-88 115l-86 -115h-240z" />
<glyph unicode="&#xcb;" horiz-adv-x="1280" d="M160 0v1446h1028v-242h-762v-340h698v-233h-698v-387h813v-244h-1079zM322 1581v252h229v-252h-229zM731 1581v252h234v-252h-234z" />
<glyph unicode="&#xcc;" horiz-adv-x="598" d="M16 1833h291l111 -248h-182zM164 0v1446h266v-1446h-266z" />
<glyph unicode="&#xcd;" horiz-adv-x="598" d="M164 0v1446h266v-1446h-266zM184 1587l111 246h293l-221 -246h-183z" />
<glyph unicode="&#xce;" horiz-adv-x="598" d="M-27 1583l207 250h240l215 -250h-248l-86 115l-86 -115h-242zM164 0v1446h266v-1446h-266z" />
<glyph unicode="&#xcf;" horiz-adv-x="598" d="M-20 1581v252h229v-252h-229zM164 0v1446h266v-1446h-266zM389 1581v252h234v-252h-234z" />
<glyph unicode="&#xd0;" horiz-adv-x="1449" d="M6 668v184h139v594h476q117 0 181 -6t120 -23q93 -28 172 -84.5t142 -142.5t99 -209.5t35 -271.5q0 -71 -9.5 -141t-36 -152t-68.5 -150t-112.5 -128t-162.5 -93q-79 -29 -159 -37t-191 -8h-486v668h-139zM416 244h114q220 0 301 22q129 34 190.5 141.5t61.5 303.5 q0 383 -268 469q-75 22 -197 22h-202v-350h315v-184h-315v-424z" />
<glyph unicode="&#xd1;" horiz-adv-x="1449" d="M168 0v1446h244l641 -1020l-33 1020h266v-1446h-237l-633 1014l16 -1014h-264zM367 1575q1 2 3.5 18t6.5 38t8 36q7 22 17.5 42t33 51.5t60.5 51t86 19.5q72 0 168 -41q84 -35 118 -35q21 0 39 12q7 4 12.5 9t8.5 8.5t5.5 11l3.5 10.5t3.5 13l3.5 14l160 -2 q-16 -161 -105 -225q-38 -33 -104 -33q-58 0 -172 43q-91 37 -123 35q-21 0 -33 -6q-28 -14 -41 -70h-159z" />
<glyph unicode="&#xd2;" horiz-adv-x="1579" d="M98 721q0 151 43 280q71 219 246.5 350.5t405.5 131.5q80 0 154 -17t127 -41t101.5 -57.5t76.5 -60t53 -54.5q182 -206 180 -530q0 -49 -5.5 -99t-23 -130.5t-62 -166t-110.5 -157.5q-110 -116 -246 -166q-115 -41 -252 -41q-155 0 -275 53.5t-220 169.5 q-193 220 -193 535zM377 731q0 -23 1.5 -44.5t6.5 -67t18.5 -87.5t34.5 -90t58.5 -91t85.5 -75q94 -61 213 -61q90 0 166 35q44 21 83.5 53t78.5 84t63 131t26 176q4 209 -86 350q-118 191 -335 191q-96 0 -185 -43q-42 -23 -79.5 -58.5t-72.5 -90t-56 -135.5t-21 -177z M506 1833h291l110 -248h-182z" />
<glyph unicode="&#xd3;" horiz-adv-x="1579" d="M98 721q0 151 43 280q71 219 246.5 350.5t405.5 131.5q80 0 154 -17t127 -41t101.5 -57.5t76.5 -60t53 -54.5q182 -206 180 -530q0 -49 -5.5 -99t-23 -130.5t-62 -166t-110.5 -157.5q-110 -116 -246 -166q-115 -41 -252 -41q-155 0 -275 53.5t-220 169.5 q-193 220 -193 535zM377 731q0 -23 1.5 -44.5t6.5 -67t18.5 -87.5t34.5 -90t58.5 -91t85.5 -75q94 -61 213 -61q90 0 166 35q44 21 83.5 53t78.5 84t63 131t26 176q4 209 -86 350q-118 191 -335 191q-96 0 -185 -43q-42 -23 -79.5 -58.5t-72.5 -90t-56 -135.5t-21 -177z M676 1587l108 246h293l-219 -246h-182z" />
<glyph unicode="&#xd4;" horiz-adv-x="1579" d="M98 721q0 151 43 280q71 219 246.5 350.5t405.5 131.5q80 0 154 -17t127 -41t101.5 -57.5t76.5 -60t53 -54.5q182 -206 180 -530q0 -49 -5.5 -99t-23 -130.5t-62 -166t-110.5 -157.5q-110 -116 -246 -166q-115 -41 -252 -41q-155 0 -275 53.5t-220 169.5 q-193 220 -193 535zM377 731q0 -23 1.5 -44.5t6.5 -67t18.5 -87.5t34.5 -90t58.5 -91t85.5 -75q94 -61 213 -61q90 0 166 35q44 21 83.5 53t78.5 84t63 131t26 176q4 209 -86 350q-118 191 -335 191q-96 0 -185 -43q-42 -23 -79.5 -58.5t-72.5 -90t-56 -135.5t-21 -177z M465 1583l205 250h241l215 -250h-247l-88 115l-86 -115h-240z" />
<glyph unicode="&#xd5;" horiz-adv-x="1579" d="M98 721q0 151 43 280q71 219 246.5 350.5t405.5 131.5q80 0 154 -17t127 -41t101.5 -57.5t76.5 -60t53 -54.5q182 -206 180 -530q0 -49 -5.5 -99t-23 -130.5t-62 -166t-110.5 -157.5q-110 -116 -246 -166q-115 -41 -252 -41q-155 0 -275 53.5t-220 169.5 q-193 220 -193 535zM377 731q0 -23 1.5 -44.5t6.5 -67t18.5 -87.5t34.5 -90t58.5 -91t85.5 -75q94 -61 213 -61q90 0 166 35q44 21 83.5 53t78.5 84t63 131t26 176q4 209 -86 350q-118 191 -335 191q-96 0 -185 -43q-42 -23 -79.5 -58.5t-72.5 -90t-56 -135.5t-21 -177z M432 1575q0 36 17 92q4 14 11 30.5t23 42t36.5 44.5t53.5 33t72 14q72 0 168 -41q87 -35 119 -35q21 0 39 12q7 4 12.5 9t8.5 8.5t5.5 11l3.5 10.5t3.5 13l3.5 14l159 -2q-16 -164 -102 -225q-42 -33 -107 -33q-58 0 -172 43q-88 37 -120 35q-23 0 -35 -6q-28 -16 -41 -70 h-158z" />
<glyph unicode="&#xd6;" horiz-adv-x="1579" d="M98 721q0 151 43 280q71 219 246.5 350.5t405.5 131.5q80 0 154 -17t127 -41t101.5 -57.5t76.5 -60t53 -54.5q182 -206 180 -530q0 -49 -5.5 -99t-23 -130.5t-62 -166t-110.5 -157.5q-110 -116 -246 -166q-115 -41 -252 -41q-155 0 -275 53.5t-220 169.5 q-193 220 -193 535zM377 731q0 -23 1.5 -44.5t6.5 -67t18.5 -87.5t34.5 -90t58.5 -91t85.5 -75q94 -61 213 -61q90 0 166 35q44 21 83.5 53t78.5 84t63 131t26 176q4 209 -86 350q-118 191 -335 191q-96 0 -185 -43q-42 -23 -79.5 -58.5t-72.5 -90t-56 -135.5t-21 -177z M471 1581v252h231v-252h-231zM881 1581v252h233v-252h-233z" />
<glyph unicode="&#xd7;" horiz-adv-x="1482" d="M264 930l185 190l315 -305l291 301l155 -151l-290 -301l317 -308l-186 -190l-318 307l-291 -301l-155 152l291 301z" />
<glyph unicode="&#xd8;" horiz-adv-x="1579" d="M47 203l143 127q-12 21 -38 73q-58 132 -58 314q0 106 20.5 201t51.5 162.5t74.5 125.5t82 93.5t80.5 64.5q167 119 396 119q272 0 469 -197l127 113l121 -137l-136 -121q107 -198 107 -420q0 -122 -29 -229q-44 -169 -155.5 -302t-270.5 -188q-110 -39 -246 -39 q-81 0 -152.5 15.5t-118.5 35.5t-94 54t-70 56t-56 58l-131 -114zM365 745q0 -86 26 -180q4 -14 19 -43l665 594q-24 24 -41.5 38.5t-53.5 38t-82.5 35.5t-100.5 11q-100 0 -193 -51q-114 -64 -176.5 -185.5t-62.5 -257.5zM500 362q96 -151 284 -151q101 0 185 43 q31 16 62 39.5t65.5 63.5t60.5 88.5t43 117.5t17 146q0 134 -48 245z" />
<glyph unicode="&#xd9;" horiz-adv-x="1492" d="M164 586v860h272v-889q0 -114 15 -160q54 -172 297 -172q16 0 30.5 1t47 5t60.5 15t59 27.5t56 46.5t39 69q19 56 19 182v875h270v-834v-51v-47v-39t-1 -37.5t-2 -30.5t-3 -31t-4.5 -26t-6 -28.5t-7.5 -26.5q-15 -46 -43 -90.5t-76 -89t-109.5 -77.5t-149.5 -54t-190 -21 q-302 0 -458 172q-63 63 -93 156q-11 36 -16 81t-5.5 80t-0.5 134zM465 1833h289l112 -248h-184z" />
<glyph unicode="&#xda;" horiz-adv-x="1492" d="M164 586v860h272v-889q0 -114 15 -160q54 -172 297 -172q16 0 30.5 1t47 5t60.5 15t59 27.5t56 46.5t39 69q19 56 19 182v875h270v-834v-51v-47v-39t-1 -37.5t-2 -30.5t-3 -31t-4.5 -26t-6 -28.5t-7.5 -26.5q-15 -46 -43 -90.5t-76 -89t-109.5 -77.5t-149.5 -54t-190 -21 q-302 0 -458 172q-63 63 -93 156q-11 36 -16 81t-5.5 80t-0.5 134zM633 1587l108 246h295l-221 -246h-182z" />
<glyph unicode="&#xdb;" horiz-adv-x="1492" d="M164 586v860h272v-889q0 -114 15 -160q54 -172 297 -172q16 0 30.5 1t47 5t60.5 15t59 27.5t56 46.5t39 69q19 56 19 182v875h270v-834v-51v-47v-39t-1 -37.5t-2 -30.5t-3 -31t-4.5 -26t-6 -28.5t-7.5 -26.5q-15 -46 -43 -90.5t-76 -89t-109.5 -77.5t-149.5 -54t-190 -21 q-302 0 -458 172q-63 63 -93 156q-11 36 -16 81t-5.5 80t-0.5 134zM422 1583l207 250h239l215 -250h-247l-86 115l-88 -115h-240z" />
<glyph unicode="&#xdc;" horiz-adv-x="1492" d="M164 586v860h272v-889q0 -114 15 -160q54 -172 297 -172q16 0 30.5 1t47 5t60.5 15t59 27.5t56 46.5t39 69q19 56 19 182v875h270v-834v-51v-47v-39t-1 -37.5t-2 -30.5t-3 -31t-4.5 -26t-6 -28.5t-7.5 -26.5q-15 -46 -43 -90.5t-76 -89t-109.5 -77.5t-149.5 -54t-190 -21 q-302 0 -458 172q-63 63 -93 156q-11 36 -16 81t-5.5 80t-0.5 134zM426 1581v252h231v-252h-231zM836 1581v252h233v-252h-233z" />
<glyph unicode="&#xdd;" horiz-adv-x="1280" d="M20 1446h308l313 -598l315 598h304l-488 -875v-571h-268v571zM526 1587l109 246h295l-221 -246h-183z" />
<glyph unicode="&#xde;" horiz-adv-x="1280" d="M168 0v1446h270v-205h217q42 0 67.5 -0.5t69 -4t74 -10t72 -19.5t73.5 -31.5t67 -47t65 -65.5q100 -121 100 -295q0 -171 -80 -289q-36 -52 -84 -89t-92.5 -56.5t-101.5 -30.5t-96.5 -13.5t-90.5 -2.5h-260v-287h-270zM438 508h195q132 0 201 28t106 109q25 53 25 127 q0 80 -35 133q-41 63 -104.5 84t-180.5 21h-207v-502z" />
<glyph unicode="&#xdf;" d="M133 0v1012q0 86 3 122t14 74q25 88 93.5 149t151.5 87t174 26q95 0 166 -22q129 -38 211.5 -126.5t81.5 -213.5q0 -130 -96 -211q-38 -34 -88 -51q73 -36 108 -64q52 -47 89.5 -129.5t37.5 -203.5q0 -98 -26 -181.5t-75.5 -147.5t-129.5 -100t-182 -36q-121 0 -195 32 v238q4 -2 11.5 -7t11.5 -7q62 -31 116 -31q85 0 150 72q61 72 61 186q0 137 -82 211q-78 72 -233 72q-25 0 -35 -2v184q1 0 11.5 -1t18.5 -2t23 -1.5t28.5 0.5t30.5 3t32.5 7t32 11.5t31.5 17t28 24.5q41 45 41 109q0 44 -23 80q-43 71 -152 71q-61 0 -106 -26 q-14 -7 -25.5 -17.5t-19.5 -19.5t-15 -23.5t-11 -23.5t-7 -28t-4.5 -26.5t-2.5 -29.5t-1 -27.5v-29.5v-27v-973h-248z" />
<glyph unicode="&#xe0;" horiz-adv-x="1110" d="M53 297q0 162 140 256q39 27 87.5 45t76 24t94.5 19q199 41 282 70q0 55 -14 84q-35 69 -162 69q-131 0 -180 -63q-27 -33 -27 -90l-250 14q7 150 111 236q112 94 338 94q218 0 330 -80q50 -36 73 -82q27 -53 27 -182v-545q0 -60 7.5 -89t37.5 -77h-291l-6 80 q-43 -37 -94 -57q-105 -48 -207 -48q-30 0 -61 4t-83.5 17.5t-101.5 48.5t-82 88q-47 79 -45 164zM303 1446h303l107 -272h-185zM313 307q0 -51 41 -86t127 -35q91 0 154 37t84 80q14 29 14 94v113q-79 -39 -194 -57q-12 -2 -41 -6.5t-45 -7.5t-39 -10.5t-41 -18.5 q-60 -39 -60 -103z" />
<glyph unicode="&#xe1;" horiz-adv-x="1110" d="M53 297q0 162 140 256q39 27 87.5 45t76 24t94.5 19q199 41 282 70q0 55 -14 84q-35 69 -162 69q-131 0 -180 -63q-27 -33 -27 -90l-250 14q7 150 111 236q112 94 338 94q218 0 330 -80q50 -36 73 -82q27 -53 27 -182v-545q0 -60 7.5 -89t37.5 -77h-291l-6 80 q-43 -37 -94 -57q-105 -48 -207 -48q-30 0 -61 4t-83.5 17.5t-101.5 48.5t-82 88q-47 79 -45 164zM313 307q0 -51 41 -86t127 -35q91 0 154 37t84 80q14 29 14 94v113q-79 -39 -194 -57q-12 -2 -41 -6.5t-45 -7.5t-39 -10.5t-41 -18.5q-60 -39 -60 -103zM449 1174l102 272 h303l-221 -272h-184z" />
<glyph unicode="&#xe2;" horiz-adv-x="1110" d="M53 297q0 162 140 256q39 27 87.5 45t76 24t94.5 19q199 41 282 70q0 55 -14 84q-35 69 -162 69q-131 0 -180 -63q-27 -33 -27 -90l-250 14q7 150 111 236q112 94 338 94q218 0 330 -80q50 -36 73 -82q27 -53 27 -182v-545q0 -60 7.5 -89t37.5 -77h-291l-6 80 q-43 -37 -94 -57q-105 -48 -207 -48q-30 0 -61 4t-83.5 17.5t-101.5 48.5t-82 88q-47 79 -45 164zM207 1171l227 275h242l227 -275h-250l-98 138l-100 -138h-248zM313 307q0 -51 41 -86t127 -35q91 0 154 37t84 80q14 29 14 94v113q-79 -39 -194 -57q-12 -2 -41 -6.5 t-45 -7.5t-39 -10.5t-41 -18.5q-60 -39 -60 -103z" />
<glyph unicode="&#xe3;" horiz-adv-x="1110" d="M53 297q0 162 140 256q39 27 87.5 45t76 24t94.5 19q199 41 282 70q0 55 -14 84q-35 69 -162 69q-131 0 -180 -63q-27 -33 -27 -90l-250 14q7 150 111 236q112 94 338 94q218 0 330 -80q50 -36 73 -82q27 -53 27 -182v-545q0 -60 7.5 -89t37.5 -77h-291l-6 80 q-43 -37 -94 -57q-105 -48 -207 -48q-30 0 -61 4t-83.5 17.5t-101.5 48.5t-82 88q-47 79 -45 164zM197 1196q0 38 16 94q6 19 17 41t34 52.5t61.5 50.5t86.5 20q12 0 23.5 -1.5t30.5 -6.5l28.5 -7.5t40 -12t43.5 -13.5q75 -35 120 -35q19 0 38 9.5t26 25.5l4.5 10.5t3 9 t4.5 13.5h158q-2 -8 -5 -31.5t-7 -40.5t-9 -33q-5 -17 -16 -37.5t-32 -47.5t-57.5 -44.5t-80.5 -17.5q-11 0 -23 1.5t-21 2.5t-23 5t-20.5 5.5t-23 7.5t-20 7.5t-22 8t-19.5 7.5q-85 35 -123 35q-17 0 -33 -8q-33 -17 -41 -70h-159zM313 307q0 -51 41 -86t127 -35 q91 0 154 37t84 80q14 29 14 94v113q-79 -39 -194 -57q-12 -2 -41 -6.5t-45 -7.5t-39 -10.5t-41 -18.5q-60 -39 -60 -103z" />
<glyph unicode="&#xe4;" horiz-adv-x="1110" d="M53 297q0 162 140 256q39 27 87.5 45t76 24t94.5 19q199 41 282 70q0 55 -14 84q-35 69 -162 69q-131 0 -180 -63q-27 -33 -27 -90l-250 14q7 150 111 236q112 94 338 94q218 0 330 -80q50 -36 73 -82q27 -53 27 -182v-545q0 -60 7.5 -89t37.5 -77h-291l-6 80 q-43 -37 -94 -57q-105 -48 -207 -48q-30 0 -61 4t-83.5 17.5t-101.5 48.5t-82 88q-47 79 -45 164zM221 1202v244h230v-244h-230zM313 307q0 -51 41 -86t127 -35q91 0 154 37t84 80q14 29 14 94v113q-79 -39 -194 -57q-12 -2 -41 -6.5t-45 -7.5t-39 -10.5t-41 -18.5 q-60 -39 -60 -103zM631 1202v244h233v-244h-233z" />
<glyph unicode="&#xe5;" horiz-adv-x="1110" d="M53 297q0 162 140 256q39 27 87.5 45t76 24t94.5 19q199 41 282 70q0 55 -14 84q-35 69 -162 69q-131 0 -180 -63q-27 -33 -27 -90l-250 14q7 150 111 236q112 94 338 94q218 0 330 -80q50 -36 73 -82q27 -53 27 -182v-545q0 -60 7.5 -89t37.5 -77h-291l-6 80 q-43 -37 -94 -57q-105 -48 -207 -48q-30 0 -61 4t-83.5 17.5t-101.5 48.5t-82 88q-47 79 -45 164zM313 307q0 -51 41 -86t127 -35q91 0 154 37t84 80q14 29 14 94v113q-79 -39 -194 -57q-12 -2 -41 -6.5t-45 -7.5t-39 -10.5t-41 -18.5q-60 -39 -60 -103zM334 1356 q0 86 61.5 146.5t147.5 60.5q50 0 102 -27q54 -31 79.5 -81.5t25.5 -98.5q0 -87 -61 -148t-146 -61q-87 0 -148 61t-61 148zM455 1354q0 -35 25.5 -60.5t60.5 -25.5q36 0 61 26t25 60q0 36 -25 61t-61 25q-23 0 -43 -10q-43 -24 -43 -76z" />
<glyph unicode="&#xe6;" horiz-adv-x="1792" d="M59 281q0 118 84 202q52 52 137 86.5t236 65.5q151 29 229 63q-4 48 -14.5 80.5t-40.5 57.5q-51 41 -137 41q-84 0 -139 -35q-26 -17 -43 -45q-23 -35 -23 -86h-237q12 133 86 217q106 127 335 127q174 0 269 -60q33 -21 88 -73q31 28 52.5 44t64 40.5t97 36.5t120.5 12 q179 0 303 -92q195 -147 207 -498h-748q10 -114 66 -182q71 -95 209 -95q102 0 180 66q42 37 67 74l195 -121q-29 -36 -49.5 -57.5t-67 -60t-92.5 -61.5t-118 -41t-152 -18q-149 0 -279 78q-39 22 -102 74q-29 -26 -68 -51q-139 -101 -332 -101q-139 0 -217.5 41t-120.5 111 q-45 77 -45 160zM319 285q0 -53 42.5 -94t132.5 -41q136 0 206 104q25 36 33.5 86.5t11.5 151.5q-37 -15 -74 -26t-62.5 -16.5t-69.5 -14t-74 -15.5q-146 -32 -146 -135zM987 641h455q-20 96 -79 155.5t-153 59.5q-97 0 -161 -68q-56 -62 -62 -147z" />
<glyph unicode="&#xe7;" horiz-adv-x="1058" d="M49 512q0 108 37 206t102.5 173t163.5 119.5t213 44.5q92 0 170 -28t130.5 -74t87 -92.5t55.5 -96.5l-220 -102q-18 56 -51 94t-69.5 53.5t-61 21t-45.5 5.5q-70 1 -122.5 -28.5t-81 -79t-41.5 -102.5t-13 -108t14 -108.5t42.5 -102.5t81.5 -79t122 -29q45 0 83 13.5 t62 32.5t44 46.5t31 50t22 47.5q1 2 1.5 3.5t1 3.5t1.5 3l209 -110q-30 -86 -84 -148q-38 -46 -77.5 -76.5t-85.5 -48.5t-78 -25.5t-87 -17.5l-53 -67h14q27 0 56 -5.5t61 -18t53.5 -38.5t22.5 -63q2 -47 -35 -90q-67 -72 -281 -72h-12q-58 0 -74 2v64q7 -2 33 -2 q131 0 131 51q0 17 -11 28.5t-33 16t-40.5 5.5t-48.5 1q-27 0 -43 -4v31l158 161q-135 26 -197 60q-72 40 -125 100t-80.5 127t-40 129.5t-12.5 122.5z" />
<glyph unicode="&#xe8;" d="M70 518q0 140 45 246q16 36 37.5 70t62 76t89 72.5t122 51.5t158.5 21q81 0 150.5 -19t118 -51t80 -62.5t54.5 -64.5q92 -141 100 -395h-757q12 -93 65 -156q80 -98 223 -98q145 0 234 94q16 16 35 47l209 -121q-36 -52 -95 -106q-26 -24 -59 -47t-84 -49t-119.5 -42 t-142.5 -16q-219 0 -367 137q-159 151 -159 412zM283 1446h303l104 -272h-182zM338 643h479q-6 49 -20 84q-61 131 -209 131q-58 0 -103 -18q-40 -16 -70 -44t-45 -60t-22 -52.5t-10 -40.5z" />
<glyph unicode="&#xe9;" d="M70 518q0 140 45 246q16 36 37.5 70t62 76t89 72.5t122 51.5t158.5 21q81 0 150.5 -19t118 -51t80 -62.5t54.5 -64.5q92 -141 100 -395h-757q12 -93 65 -156q80 -98 223 -98q145 0 234 94q16 16 35 47l209 -121q-36 -52 -95 -106q-26 -24 -59 -47t-84 -49t-119.5 -42 t-142.5 -16q-219 0 -367 137q-159 151 -159 412zM338 643h479q-6 49 -20 84q-61 131 -209 131q-58 0 -103 -18q-40 -16 -70 -44t-45 -60t-22 -52.5t-10 -40.5zM469 1174l102 272h306l-222 -272h-186z" />
<glyph unicode="&#xea;" d="M70 518q0 140 45 246q16 36 37.5 70t62 76t89 72.5t122 51.5t158.5 21q81 0 150.5 -19t118 -51t80 -62.5t54.5 -64.5q92 -141 100 -395h-757q12 -93 65 -156q80 -98 223 -98q145 0 234 94q16 16 35 47l209 -121q-36 -52 -95 -106q-26 -24 -59 -47t-84 -49t-119.5 -42 t-142.5 -16q-219 0 -367 137q-159 151 -159 412zM227 1171l228 275h241l230 -275h-252l-96 138l-103 -138h-248zM338 643h479q-6 49 -20 84q-61 131 -209 131q-58 0 -103 -18q-40 -16 -70 -44t-45 -60t-22 -52.5t-10 -40.5z" />
<glyph unicode="&#xeb;" d="M70 518q0 140 45 246q16 36 37.5 70t62 76t89 72.5t122 51.5t158.5 21q81 0 150.5 -19t118 -51t80 -62.5t54.5 -64.5q92 -141 100 -395h-757q12 -93 65 -156q80 -98 223 -98q145 0 234 94q16 16 35 47l209 -121q-36 -52 -95 -106q-26 -24 -59 -47t-84 -49t-119.5 -42 t-142.5 -16q-219 0 -367 137q-159 151 -159 412zM256 1202v244h231v-244h-231zM338 643h479q-6 49 -20 84q-61 131 -209 131q-58 0 -103 -18q-40 -16 -70 -44t-45 -60t-22 -52.5t-10 -40.5zM666 1202v244h233v-244h-233z" />
<glyph unicode="&#xec;" horiz-adv-x="512" d="M-39 1446h303l107 -272h-183zM133 0v1024h244v-1024h-244z" />
<glyph unicode="&#xed;" horiz-adv-x="512" d="M133 0v1024h244v-1024h-244zM150 1174l102 272h303l-221 -272h-184z" />
<glyph unicode="&#xee;" horiz-adv-x="512" d="M-92 1171l227 275h242l227 -275h-250l-96 138l-102 -138h-248zM133 0v1024h244v-1024h-244z" />
<glyph unicode="&#xef;" horiz-adv-x="512" d="M-63 1202v244h229v-244h-229zM133 0v1024h244v-1024h-244zM346 1202v244h234v-244h-234z" />
<glyph unicode="&#xf0;" horiz-adv-x="1193" d="M72 510q-2 139 49 254q21 47 55.5 93t87.5 93.5t131 77t168 29.5q74 0 119.5 -19.5t89.5 -58.5q-25 106 -102 205l-334 -90l-39 108l293 80q-19 18 -49.5 48.5t-48.5 47.5l229 99q21 -19 39.5 -39t41 -46t36.5 -42l188 51l41 -109l-156 -43q67 -107 103 -182 q42 -85 77 -214t35 -275q0 -156 -36.5 -261.5t-104.5 -185.5q-68 -78 -157.5 -120.5t-227.5 -41.5q-231 0 -375 148q-79 79 -114 180q-37 102 -39 213zM328 518q1 -81 29 -152t92 -120.5t153 -50.5q71 -1 125 28t84 77.5t44.5 104.5t12.5 115q-3 79 -30 146 q-70 160 -238 168q-68 1 -122.5 -26t-86 -73t-48 -101.5t-15.5 -115.5z" />
<glyph unicode="&#xf1;" d="M129 0v1024h248v-121q16 24 45 53q43 41 105.5 65t99 29t65.5 5q101 0 170.5 -39t102.5 -86q12 -17 21.5 -38t15.5 -37t10.5 -43.5t7 -40.5t3.5 -45.5t1 -40.5v-44.5v-38.5v-602h-242v522q0 119 -10 158q-10 42 -31 71t-47.5 41.5t-48 17.5t-43.5 5q-73 0 -129 -47 q-55 -45 -75.5 -117t-20.5 -207v-444h-248zM217 1196q0 2 2.5 19t7 38.5t9.5 36.5q6 19 16.5 40.5t33 52.5t60.5 51t86 20q63 0 166 -41q76 -35 121 -35q19 0 38.5 9.5t26.5 25.5q3 5 11 33h159q-2 -10 -8.5 -47.5t-13.5 -57.5q-5 -14 -11.5 -28t-23 -37.5t-35.5 -40 t-50 -29t-67 -12.5q-11 0 -23 1.5t-21 2.5t-23 5t-20.5 5.5t-23 7.5t-20 7.5t-22 8t-19.5 7.5q-85 35 -122 35q-17 0 -33 -8q-29 -15 -41 -70h-160z" />
<glyph unicode="&#xf2;" horiz-adv-x="1193" d="M72 516q0 110 45 229q15 36 36.5 72t63 81t91.5 78t125.5 56t162.5 23q120 0 225 -47q38 -16 74.5 -39.5t79 -66t74.5 -94t53 -128t22 -164.5q0 -128 -41 -229q-14 -37 -36 -73.5t-63 -82.5t-91 -80.5t-126 -58t-163 -23.5q-127 0 -231 47q-36 16 -72.5 40t-79 67.5 t-74.5 96.5t-53.5 130.5t-21.5 165.5zM303 1446h303l107 -272h-185zM328 522q0 -80 20 -139q6 -18 16.5 -38.5t32.5 -48.5t49 -49.5t68.5 -36.5t89.5 -15q131 0 200 96.5t64 228.5q-2 83 -32.5 152.5t-94 115.5t-149.5 46q-78 0 -139 -39q-50 -33 -87.5 -101t-37.5 -172z " />
<glyph unicode="&#xf3;" horiz-adv-x="1193" d="M72 516q0 110 45 229q15 36 36.5 72t63 81t91.5 78t125.5 56t162.5 23q120 0 225 -47q38 -16 74.5 -39.5t79 -66t74.5 -94t53 -128t22 -164.5q0 -128 -41 -229q-14 -37 -36 -73.5t-63 -82.5t-91 -80.5t-126 -58t-163 -23.5q-127 0 -231 47q-36 16 -72.5 40t-79 67.5 t-74.5 96.5t-53.5 130.5t-21.5 165.5zM328 522q0 -80 20 -139q6 -18 16.5 -38.5t32.5 -48.5t49 -49.5t68.5 -36.5t89.5 -15q131 0 200 96.5t64 228.5q-2 83 -32.5 152.5t-94 115.5t-149.5 46q-78 0 -139 -39q-50 -33 -87.5 -101t-37.5 -172zM492 1174l102 272h303l-221 -272 h-184z" />
<glyph unicode="&#xf4;" horiz-adv-x="1193" d="M72 516q0 110 45 229q15 36 36.5 72t63 81t91.5 78t125.5 56t162.5 23q120 0 225 -47q38 -16 74.5 -39.5t79 -66t74.5 -94t53 -128t22 -164.5q0 -128 -41 -229q-14 -37 -36 -73.5t-63 -82.5t-91 -80.5t-126 -58t-163 -23.5q-127 0 -231 47q-36 16 -72.5 40t-79 67.5 t-74.5 96.5t-53.5 130.5t-21.5 165.5zM250 1171l227 275h242l227 -275h-250l-98 138l-100 -138h-248zM328 522q0 -80 20 -139q6 -18 16.5 -38.5t32.5 -48.5t49 -49.5t68.5 -36.5t89.5 -15q131 0 200 96.5t64 228.5q-2 83 -32.5 152.5t-94 115.5t-149.5 46q-78 0 -139 -39 q-50 -33 -87.5 -101t-37.5 -172z" />
<glyph unicode="&#xf5;" horiz-adv-x="1193" d="M72 516q0 110 45 229q15 36 36.5 72t63 81t91.5 78t125.5 56t162.5 23q120 0 225 -47q38 -16 74.5 -39.5t79 -66t74.5 -94t53 -128t22 -164.5q0 -128 -41 -229q-14 -37 -36 -73.5t-63 -82.5t-91 -80.5t-126 -58t-163 -23.5q-127 0 -231 47q-36 16 -72.5 40t-79 67.5 t-74.5 96.5t-53.5 130.5t-21.5 165.5zM240 1196q0 38 16 94q6 19 17 41t34 52.5t61.5 50.5t86.5 20q10 0 21 -1.5t20 -3t26.5 -6.5t26.5 -8t34.5 -10.5t37.5 -11.5q75 -35 120 -35q19 0 37 9.5t27 25.5l4.5 10.5t3 9t4.5 13.5h158q-15 -81 -23 -105q-5 -18 -16 -38 t-31.5 -47t-56.5 -44.5t-80 -17.5q-57 0 -172 45q-85 35 -123 35q-17 0 -33 -8q-33 -17 -41 -70h-159zM328 522q0 -80 20 -139q6 -18 16.5 -38.5t32.5 -48.5t49 -49.5t68.5 -36.5t89.5 -15q131 0 200 96.5t64 228.5q-2 83 -32.5 152.5t-94 115.5t-149.5 46q-78 0 -139 -39 q-50 -33 -87.5 -101t-37.5 -172z" />
<glyph unicode="&#xf6;" horiz-adv-x="1193" d="M72 516q0 110 45 229q15 36 36.5 72t63 81t91.5 78t125.5 56t162.5 23q120 0 225 -47q38 -16 74.5 -39.5t79 -66t74.5 -94t53 -128t22 -164.5q0 -128 -41 -229q-14 -37 -36 -73.5t-63 -82.5t-91 -80.5t-126 -58t-163 -23.5q-127 0 -231 47q-36 16 -72.5 40t-79 67.5 t-74.5 96.5t-53.5 130.5t-21.5 165.5zM281 1202v244h231v-244h-231zM328 522q0 -80 20 -139q6 -18 16.5 -38.5t32.5 -48.5t49 -49.5t68.5 -36.5t89.5 -15q131 0 200 96.5t64 228.5q-2 83 -32.5 152.5t-94 115.5t-149.5 46q-78 0 -139 -39q-50 -33 -87.5 -101t-37.5 -172z M690 1202v244h234v-244h-234z" />
<glyph unicode="&#xf7;" horiz-adv-x="1482" d="M162 526v230h1159v-230h-1159zM616 127v274h248v-274h-248zM616 879v276h250v-276h-250z" />
<glyph unicode="&#xf8;" horiz-adv-x="1193" d="M18 162l115 92q-72 122 -72 264q0 106 35 201q14 39 36 78t64 87.5t94.5 84.5t132.5 61t173 25q70 0 130 -13t105 -37.5t71 -43.5t56 -46l105 84l94 -114l-115 -92q23 -41 35.5 -67t27.5 -87.5t15 -130.5q0 -217 -131 -369q-144 -170 -411 -170q-117 0 -197.5 36 t-163.5 122l-108 -86zM303 524q0 -56 16 -123l459 369q-17 20 -33 33q-68 54 -157 51q-122 0 -205 -92q-80 -90 -80 -238zM393 272q82 -100 205 -100q117 0 199 88q82 86 82 240q0 72 -25 141z" />
<glyph unicode="&#xf9;" horiz-adv-x="1193" d="M127 349v44.5v40.5v590h248v-553q0 -104 13 -145q18 -59 69 -88q51 -31 118 -31q78 0 127 36.5t72 78.5q19 36 28 91t10 85t1 92v434h246v-1024h-246l-2 104q-140 -129 -330 -129q-204 0 -295 136q-12 18 -21.5 38.5t-15.5 36t-10.5 42t-7 38t-3.5 44t-1 39.5zM303 1446 h303l107 -272h-185z" />
<glyph unicode="&#xfa;" horiz-adv-x="1193" d="M127 349v44.5v40.5v590h248v-553q0 -104 13 -145q18 -59 69 -88q51 -31 118 -31q78 0 127 36.5t72 78.5q19 36 28 91t10 85t1 92v434h246v-1024h-246l-2 104q-140 -129 -330 -129q-204 0 -295 136q-12 18 -21.5 38.5t-15.5 36t-10.5 42t-7 38t-3.5 44t-1 39.5zM492 1174 l102 272h303l-221 -272h-184z" />
<glyph unicode="&#xfb;" horiz-adv-x="1193" d="M127 349v44.5v40.5v590h248v-553q0 -104 13 -145q18 -59 69 -88q51 -31 118 -31q78 0 127 36.5t72 78.5q19 36 28 91t10 85t1 92v434h246v-1024h-246l-2 104q-140 -129 -330 -129q-204 0 -295 136q-12 18 -21.5 38.5t-15.5 36t-10.5 42t-7 38t-3.5 44t-1 39.5zM250 1171 l227 275h242l227 -275h-250l-98 138l-100 -138h-248z" />
<glyph unicode="&#xfc;" horiz-adv-x="1193" d="M127 349v44.5v40.5v590h248v-553q0 -104 13 -145q18 -59 69 -88q51 -31 118 -31q78 0 127 36.5t72 78.5q19 36 28 91t10 85t1 92v434h246v-1024h-246l-2 104q-140 -129 -330 -129q-204 0 -295 136q-12 18 -21.5 38.5t-15.5 36t-10.5 42t-7 38t-3.5 44t-1 39.5zM274 1202 v244h230v-244h-230zM684 1202v244h234v-244h-234z" />
<glyph unicode="&#xfd;" horiz-adv-x="980" d="M25 1024h264l229 -764l193 764h252l-261 -893q-2 -7 -16.5 -57.5t-20.5 -70t-21 -65.5t-26.5 -71.5t-28.5 -60t-35 -58t-38 -39.5q-44 -36 -93 -48.5t-116 -12.5q-77 0 -145 14v213q133 -16 190 31q30 28 43 74zM385 1174l102 272h304l-222 -272h-184z" />
<glyph unicode="&#xfe;" horiz-adv-x="1193" d="M131 -334v1780h246v-514q58 58 124 92t165 31q92 -2 169 -36t129 -89t88.5 -126.5t53 -147.5t16.5 -152q0 -78 -18 -154t-56 -145t-91.5 -121.5t-131 -83.5t-168.5 -31q-94 0 -158 31.5t-122 83.5v-418h-246zM373 518q-3 -77 26 -156q31 -80 90.5 -119.5t133.5 -39.5 q47 0 89 17t78 52t57.5 96.5t22.5 141.5q1 152 -73 229t-172 80q-44 1 -86 -15.5t-79.5 -50t-61.5 -94.5t-25 -141z" />
<glyph unicode="&#xff;" horiz-adv-x="980" d="M25 1024h264l229 -764l193 764h252l-261 -893q-2 -7 -16.5 -57.5t-20.5 -70t-21 -65.5t-26.5 -71.5t-28.5 -60t-35 -58t-38 -39.5q-44 -36 -93 -48.5t-116 -12.5q-77 0 -145 14v213q133 -16 190 31q30 28 43 74zM172 1202v244h229v-244h-229zM582 1202v244h233v-244h-233 z" />
<glyph unicode="&#x152;" horiz-adv-x="2260" d="M96 694q0 68 15 160q6 41 16 81t36.5 107t62 124t99 120t142.5 107q158 90 334 90q168 0 327 -99v62h1033v-246h-764v-346h665v-233h-665v-377h809v-244h-1078l-2 51q-158 -88 -350 -88q-238 0 -414 141q-46 37 -86 83t-84 117.5t-70 172.5t-26 217zM385 698 q0 -193 86 -317q129 -180 350 -178q149 0 244 82q33 28 45 50t18 50v547q0 16 0.5 40t0.5 33t-1.5 23t-4.5 24t-9 21q-40 75 -125 114.5t-180 39.5q-106 0 -195 -51q-45 -25 -82.5 -62t-72 -93.5t-54.5 -139t-20 -183.5z" />
<glyph unicode="&#x153;" horiz-adv-x="1878" d="M70 502q0 265 168 422q137 131 342 131q210 0 362 -152q101 91 187 121.5t174 30.5q105 0 198 -37q35 -15 69 -37t75.5 -59.5t77 -97t57.5 -132.5q24 -83 32 -239h-735q9 -63 23 -97q31 -78 96 -123t150 -45q58 0 124 30.5t121 109.5l199 -121q-46 -65 -107 -113 q-85 -68 -165.5 -96.5t-188.5 -28.5q-94 0 -162.5 21t-134.5 76q-52 45 -82 88q-40 -55 -88 -93q-119 -92 -291 -92q-210 0 -346 127q-155 146 -155 406zM317 510q0 -51 11 -98q5 -22 13 -45t27.5 -56t45.5 -58t69.5 -43t96.5 -17q129 0 200 100q62 82 62 211q0 77 -25 141 q-30 84 -93 132t-149 48q-85 0 -145 -47t-86.5 -116.5t-26.5 -151.5zM1077 627h451q-13 53 -27 86q-9 19 -22 36.5t-36.5 41t-61 37.5t-81.5 14q-20 0 -42 -4.5t-50.5 -15.5t-55.5 -36.5t-46 -62.5q-19 -36 -29 -96z" />
<glyph unicode="&#x178;" horiz-adv-x="1280" d="M20 1446h308l313 -598l315 598h304l-488 -875v-571h-268v571zM322 1581v252h229v-252h-229zM731 1581v252h234v-252h-234z" />
<glyph unicode="&#x2c6;" horiz-adv-x="555" d="M-72 1171l228 275h241l230 -275h-252l-96 138l-103 -138h-248z" />
<glyph unicode="&#x2dc;" horiz-adv-x="555" d="M-90 1196q0 38 16 94q60 164 197 164q12 0 23.5 -1.5t30.5 -6.5l28.5 -7.5t40 -12t43.5 -13.5q76 -35 121 -35q19 0 37.5 9.5t25.5 25.5l4.5 10.5t3 9t4.5 13.5h162q-3 -13 -9.5 -49.5t-12.5 -55.5q-5 -14 -11.5 -28t-23 -37.5t-35.5 -40t-50 -29t-67 -12.5 q-57 0 -172 45q-88 35 -123 35q-20 0 -32 -8q-33 -15 -41 -70h-160z" />
<glyph unicode="&#x2000;" horiz-adv-x="986" />
<glyph unicode="&#x2001;" horiz-adv-x="1972" />
<glyph unicode="&#x2002;" horiz-adv-x="986" />
<glyph unicode="&#x2003;" horiz-adv-x="1972" />
<glyph unicode="&#x2004;" horiz-adv-x="657" />
<glyph unicode="&#x2005;" horiz-adv-x="493" />
<glyph unicode="&#x2006;" horiz-adv-x="328" />
<glyph unicode="&#x2007;" horiz-adv-x="328" />
<glyph unicode="&#x2008;" horiz-adv-x="246" />
<glyph unicode="&#x2009;" horiz-adv-x="394" />
<glyph unicode="&#x200a;" horiz-adv-x="109" />
<glyph unicode="&#x2010;" horiz-adv-x="761" d="M84 506v231h592v-231h-592z" />
<glyph unicode="&#x2011;" horiz-adv-x="761" d="M84 506v231h592v-231h-592z" />
<glyph unicode="&#x2012;" horiz-adv-x="761" d="M84 506v231h592v-231h-592z" />
<glyph unicode="&#x2013;" horiz-adv-x="1249" d="M84 506v231h1081v-231h-1081z" />
<glyph unicode="&#x2014;" horiz-adv-x="1828" d="M84 506v231h1661v-231h-1661z" />
<glyph unicode="&#x2018;" horiz-adv-x="425" d="M74 887v307q0 61 8 86q23 73 94.5 118.5t153.5 53.5v-121q-64 -7 -87.5 -50t-23.5 -114h127v-280h-272z" />
<glyph unicode="&#x2019;" horiz-adv-x="425" d="M80 1165v281h268v-305q0 -112 -70 -179t-184 -83v114q60 27 84.5 53.5t24.5 86.5q0 22 -2 32h-121z" />
<glyph unicode="&#x201a;" horiz-adv-x="425" d="M76 0v281h272v-301v-9q0 -105 -55.5 -162t-165.5 -85q-16 -3 -35 -9v119q64 7 87.5 51t23.5 115h-127z" />
<glyph unicode="&#x201c;" horiz-adv-x="768" d="M76 893v297q0 123 60 185.5t188 88.5v-114q-32 -13 -51 -25t-30.5 -23t-16.5 -32t-6 -38.5t-1 -55.5h123v-283h-266zM426 893v311q0 69 18 113t68 82q67 50 166 57v-108q-75 -29 -94 -58t-19 -114h127v-283h-266z" />
<glyph unicode="&#x201d;" horiz-adv-x="768" d="M76 1161v285h266v-318q0 -66 -18.5 -108.5t-67.5 -79.5q-77 -60 -166 -57v108q58 15 85.5 49t27.5 93q0 5 -1 14t-1 14h-125zM426 1161v285h266v-293q0 -126 -60.5 -191.5t-189.5 -89.5v115q31 10 51 22t31.5 24.5t17 34.5t6.5 40t1 53h-123z" />
<glyph unicode="&#x201e;" horiz-adv-x="768" d="M76 0v285h266v-299q0 -82 -12 -113q-27 -68 -96 -111t-144 -43v109q113 29 113 143q0 5 -1 14.5t-1 14.5h-125zM426 0v285h266v-295q0 -126 -60 -191.5t-190 -89.5v115q58 20 82.5 48.5t24.5 84.5v43h-123z" />
<glyph unicode="&#x2022;" horiz-adv-x="681" d="M96 477v488h490v-488h-490z" />
<glyph unicode="&#x2026;" horiz-adv-x="2048" d="M225 0v227h230v-227h-230zM909 0v227h230v-227h-230zM1591 0v227h232v-227h-232z" />
<glyph unicode="&#x202f;" horiz-adv-x="394" />
<glyph unicode="&#x2039;" horiz-adv-x="512" d="M115 500v288l291 234v-234l-177 -145l177 -143v-230z" />
<glyph unicode="&#x203a;" horiz-adv-x="512" d="M102 264v232l177 147l-177 141v232l291 -232v-288z" />
<glyph unicode="&#x205f;" horiz-adv-x="493" />
<glyph unicode="&#x20ac;" horiz-adv-x="1429" d="M68 516l55 148h88l4 81h-147l55 148h108q58 252 233 391t433 139q144 0 252 -33t213 -118l-94 -273q-74 96 -157 140.5t-200 44.5q-145 0 -246 -76t-139 -215h707l-55 -148h-672q-2 -12 -2 -38q0 -29 2 -43h647l-55 -148h-574q42 -150 142 -229.5t254 -79.5 q114 0 219 47.5t180 132.5v-305q-183 -125 -430 -125q-271 0 -438.5 145t-223.5 414h-159z" />
<glyph unicode="&#x2122;" horiz-adv-x="1406" d="M16 1327v119h521v-119h-181v-561h-147v561h-193zM621 766l2 680h217l116 -477l113 477h215l2 -680h-135l2 539l-139 -539h-119l-143 547l8 -547h-139z" />
<glyph unicode="&#x25fc;" horiz-adv-x="1024" d="M0 0v1024h1024v-1024h-1024z" />
</font>
</defs>
</svg>
