<?xml version="1.0" standalone="no"?>
<!DOCTYPE svg PUBLIC "-//W3C//DTD SVG 1.1//EN" "http://www.w3.org/Graphics/SVG/1.1/DTD/svg11.dtd" >
<svg xmlns="http://www.w3.org/2000/svg" xmlns:xlink="http://www.w3.org/1999/xlink" version="1.1">
<metadata></metadata>
<defs>
<font id="akzidenz-grotesk_bqitalic" horiz-adv-x="1110" >
<font-face units-per-em="2048" ascent="1638" descent="-410" />
<missing-glyph horiz-adv-x="555" />
<glyph horiz-adv-x="0" />
<glyph horiz-adv-x="682" />
<glyph unicode=" "  horiz-adv-x="555" />
<glyph unicode="&#x09;" horiz-adv-x="555" />
<glyph unicode="&#xa0;" horiz-adv-x="555" />
<glyph unicode="!" horiz-adv-x="555" d="M154 0l51 225h205l-54 -225h-202zM307 463l76 530l104 453h187l-111 -477l-160 -506h-96z" />
<glyph unicode="&#x22;" horiz-adv-x="710" d="M291 920l82 602h180l-197 -602h-65zM639 920l80 602h180l-194 -602h-66z" />
<glyph unicode="#" horiz-adv-x="1366" d="M135 469l27 158h305l72 221h-291l28 158h312l139 438h164l-139 -438h225l141 438h160l-137 -438h282l-28 -158h-303l-72 -221h285l-29 -158h-307l-150 -469h-162l150 469h-227l-150 -469h-166l154 469h-283zM629 627h229l70 221h-228z" />
<glyph unicode="$" horiz-adv-x="1366" d="M121 481l188 37q-11 -170 70 -272q38 -46 83.5 -71.5t115.5 -47.5l133 578q-169 61 -265 145q-45 45 -69 88q-33 59 -33 131q0 124 80 227q36 44 102.5 89.5t161.5 68.5q35 9 77 13.5t77.5 6t36.5 1.5l36 157h138l-37 -166q3 -1 19.5 -4t31 -6t36.5 -9t40 -13 q20 -8 42.5 -19.5t57.5 -34t68 -57t55 -74.5q32 -54 47 -166l-186 -45q-20 188 -174 260q-28 12 -72 23l-107 -496q21 -10 72 -30.5t78 -34.5q16 -7 34.5 -16.5t50.5 -31t58.5 -46.5t53 -62.5t39.5 -79.5q16 -50 16 -102q0 -78 -27 -152q-18 -44 -47 -85t-77.5 -81.5 t-109.5 -69.5t-147.5 -46t-185.5 -15l-45 -192h-139l45 201q-33 6 -47.5 9t-62.5 18.5t-80.5 33t-75 52t-72.5 77.5q-84 120 -84 309zM535 1083q0 -65 49 -110q70 -56 166 -86l96 442q-71 -7 -119.5 -20t-93.5 -43q-29 -19 -49 -45q-25 -32 -31 -54q-18 -45 -18 -84z M717 117q23 0 51 3.5t75.5 13.5t95.5 37t83 67q68 78 68 172q0 84 -68 145q-22 19 -42.5 30.5t-52 25t-46.5 20.5q-31 13 -41 20z" />
<glyph unicode="%" horiz-adv-x="1878" d="M186 797q0 142 51.5 281t151.5 222q95 78 217 78q93 0 156 -45q70 -49 101 -142t28 -190q-1 -36 -7.5 -80t-25 -118t-61.5 -149t-105 -128q-104 -84 -223 -84q-86 0 -152 45q-131 87 -131 310zM309 774q0 -150 80 -209q36 -30 88 -30q50 0 96.5 31.5t81.5 78.5 q45 61 76.5 167t36.5 192q5 139 -33 204q-24 43 -61 59.5t-68 16.5q-46 0 -97.5 -29.5t-96.5 -97.5q-39 -62 -71 -161t-32 -222zM602 -12l744 1427l88 -45l-742 -1429zM1153 340q0 140 51.5 279.5t151.5 222.5q96 78 219 78q59 0 106 -19t76.5 -47.5t50.5 -67.5t31 -74.5 t15.5 -74t6 -58.5t-0.5 -36q0 -41 -15 -123q-54 -241 -186 -352q-100 -84 -221 -84q-87 0 -154 47q-131 87 -131 309zM1276 311q0 -137 74 -198q44 -37 94 -37q60 0 117 47q139 109 174 424v7q0 6 0.5 13.5t0.5 19.5t-1 24.5t-2.5 27t-4 29t-6 28.5t-8.5 28t-12 26 q-19 34 -55 56t-74 21q-67 0 -129 -55q-84 -71 -126 -203t-42 -258z" />
<glyph unicode="&#x26;" horiz-adv-x="1280" d="M113 319q0 155 137 310q55 61 108 102q13 10 88 62q0 3 -3.5 25.5t-6.5 45t-5.5 55t-2.5 58.5q0 109 39 212.5t117 162.5q95 71 211 71q18 0 42.5 -3.5t63 -14t76 -36.5t61.5 -64q37 -55 37 -125q0 -51 -28 -116.5t-93 -129.5q-16 -16 -31 -29t-36.5 -28t-34 -24 t-44.5 -28t-46 -27t-60 -34.5t-67 -38.5q82 -182 162 -291q50 -67 106 -123q55 50 102 103.5t119 154.5l133 -84q-68 -98 -115 -154t-122 -124q48 -30 71 -39.5t111 -40.5l-37 -152q-135 32 -278 127q-37 -24 -63 -39t-75.5 -37t-111 -33t-131.5 -11q-109 0 -180 28 q-98 38 -155.5 121.5t-57.5 187.5zM295 328q0 -54 20 -97q19 -39 67 -70.5t124 -31.5q90 0 186 47q41 20 70 43q-38 41 -72 84q-112 141 -196 338q-1 -1 -14.5 -11t-22.5 -18t-27 -23t-31 -30t-30 -35t-29 -42t-23 -46t-16.5 -52t-5.5 -56zM592 983q0 -19 10 -111 q54 27 64 33q77 40 161 121q88 84 88 156q0 33 -14.5 56.5t-36 33.5t-38 14t-29.5 4q-35 0 -77 -20.5t-73 -71.5q-25 -38 -40 -101t-15 -114z" />
<glyph unicode="'" horiz-adv-x="362" d="M291 920l82 602h180l-197 -602h-65z" />
<glyph unicode="(" horiz-adv-x="645" d="M168 432q0 399 215 721q126 189 315 340q97 77 215 145l64 -90q-14 -8 -32 -21t-19 -14q-226 -161 -355 -346q-225 -329 -225 -753q0 -297 115 -508q41 -76 102 -148l-90 -86q-155 161 -230 347.5t-75 412.5z" />
<glyph unicode=")" horiz-adv-x="645" d="M-162 -240q21 15 49 37q230 161 355 344q111 162 169 355t58 399q0 293 -117 510q-40 73 -100 145l90 86q155 -161 229 -347t74 -412q0 -398 -213 -721q-134 -198 -315 -340q-90 -71 -215 -146z" />
<glyph unicode="*" horiz-adv-x="714" d="M250 1253l61 107l191 -105l49 207l123 -28l-49 -209l221 18l16 -119l-225 -22l88 -197l-115 -49l-90 199l-158 -142l-83 95l157 141z" />
<glyph unicode="+" horiz-adv-x="1482" d="M260 539l37 157h459l106 467h180l-108 -467h461l-37 -157h-461l-106 -471h-181l109 471h-459z" />
<glyph unicode="," horiz-adv-x="468" d="M16 -315q53 95 82.5 162.5t48.5 152.5h-84l54 225h194q-38 -299 -194 -540h-101z" />
<glyph unicode="-" horiz-adv-x="757" d="M143 537l37 155h574l-35 -155h-576z" />
<glyph unicode="." horiz-adv-x="468" d="M70 0l47 225h205l-46 -225h-206z" />
<glyph unicode="/" horiz-adv-x="641" d="M37 0l592 1446h159l-587 -1446h-164z" />
<glyph unicode="0" horiz-adv-x="1193" d="M156 508q0 208 74 414.5t216 332.5q91 78 205 113q69 18 137 18q144 0 244 -75t144 -210.5t41 -279.5q0 -73 -21 -186q-21 -109 -56.5 -202t-79 -159t-84 -111.5t-83.5 -78.5q-149 -109 -311 -109q-64 0 -120.5 16.5t-96.5 43.5t-65 51t-44 49q-100 139 -100 373z M332 471q0 -215 112 -309q62 -56 146 -56q95 0 192 77t164 237q46 108 69 224.5t25 178.5q4 4 1 91t-19 145q-13 47 -39 88q-13 20 -34 41.5t-66.5 44t-96.5 22.5q-103 0 -198 -81q-85 -72 -145.5 -200t-85.5 -256t-25 -247z" />
<glyph unicode="1" horiz-adv-x="1193" d="M365 1006l32 139q1 0 20.5 -1t42 -1.5t51 1t58.5 7t54 14.5q139 52 184 221h168l-320 -1386h-170l246 1061q-27 -16 -49 -25q-41 -15 -105.5 -26t-107.5 -11t-104 7z" />
<glyph unicode="2" horiz-adv-x="1193" d="M61 0l41 176q68 34 129 72q93 58 107 67q16 10 46 30t46 30q133 86 223 157q104 84 174 168q148 170 148 330q0 53 -21 100q-27 58 -81 87.5t-119 29.5q-68 0 -125 -30q-64 -34 -113.5 -109.5t-48.5 -194.5q0 -26 6 -86l-186 39q0 70 8 133q15 109 63.5 187.5 t139.5 132.5q115 67 258 67q203 0 313 -116q46 -46 66 -103q22 -55 22 -133q0 -222 -178 -426q-59 -69 -131 -131q-67 -57 -197 -139q-106 -70 -211 -127q-22 -11 -46 -22.5t-53 -24.5t-46 -21l733 11l-35 -154h-932z" />
<glyph unicode="3" horiz-adv-x="1193" d="M92 410l184 20q0 -42 21 -113q10 -33 28.5 -63.5t52 -64.5t90 -55t128.5 -21q90 0 156 32q46 21 78.5 55t47 70.5t20 64t5.5 50.5q0 67 -34.5 121.5t-96.5 85.5q-53 27 -114.5 34.5t-206.5 10.5l34 139q19 -3 72 -4.5t144 11.5t147 46q18 10 36.5 25.5t41 41t37 65 t14.5 83.5q0 95 -59 146q-59 59 -170 59q-59 0 -108 -18t-78 -44t-51 -60.5t-31.5 -60.5t-14.5 -52q-4 -21 -6 -45.5t-2 -26.5l-189 35q26 127 72 205q28 47 66 84t79.5 58t79 34.5t78 19t62.5 7t45 1.5q251 0 354 -163q51 -77 51 -183q0 -103 -58 -185t-155 -122 q-57 -22 -145 -31q75 -13 125 -36q81 -39 123 -114t42 -169q0 -113 -57 -201q-36 -56 -91.5 -97.5t-106 -61.5t-109 -32t-88.5 -14t-55 -2q-74 0 -160 21q-227 57 -299 264q-22 63 -29 150z" />
<glyph unicode="4" horiz-adv-x="1193" d="M121 373l33 147l813 866h168l-187 -866h187l-35 -147h-187l-86 -373h-161l86 373h-631zM352 520h434l164 668z" />
<glyph unicode="5" horiz-adv-x="1193" d="M96 385l168 25q15 -98 62 -170q87 -127 249 -127q86 0 164 39q33 17 65.5 44t70 72t60.5 113t23 147q0 68 -18 113q-8 24 -22 46.5t-39 49t-66.5 42.5t-93.5 16q-54 0 -107.5 -20t-80.5 -38.5t-48 -38.5q-25 -22 -59 -67l-184 31l192 700h770l-35 -145h-628l-113 -426 q32 32 48.5 46.5t59 43t95 42t116.5 13.5q177 -1 283.5 -113t106.5 -288q0 -174 -100.5 -324.5t-262.5 -206.5q-83 -29 -192 -29q-209 0 -340 115q-125 108 -144 295z" />
<glyph unicode="6" horiz-adv-x="1193" d="M193 524q0 263 129 502q46 86 105.5 152t115.5 104.5t117.5 62.5t109.5 32.5t94 8.5q125 0 231 -61.5t152 -171.5q16 -39 25 -94l-174 -35q-6 51 -23 88q-15 35 -39.5 60.5t-48 38.5t-52 21t-45 9.5t-32.5 1.5q-60 0 -108 -18q-144 -47 -250 -217q-67 -108 -101 -217 q-14 -42 -30 -134q18 31 33 53.5t54 65.5t79 70.5t104 49.5t135 22q151 0 262 -89q53 -45 94 -125.5t41 -195.5q0 -111 -43 -217q-16 -38 -36.5 -74t-60.5 -82.5t-89.5 -79.5t-125 -56.5t-163.5 -23.5q-162 0 -276 86q-60 47 -101 111q-83 137 -83 352zM393 397 q0 -109 60 -188q31 -40 78 -63.5t76 -28t55 -4.5q79 0 143 34q50 27 88 68.5t57.5 82t32 85t15.5 71.5t3 48q0 69 -18 121q-16 49 -48 82.5t-69.5 47.5t-64 18.5t-51.5 4.5q-130 0 -232 -90q-58 -52 -91.5 -131t-33.5 -158z" />
<glyph unicode="7" horiz-adv-x="1193" d="M240 965l92 397h848q-10 -91 -37 -168q-14 -43 -37 -90t-45 -84.5t-68 -114t-82 -139.5q-251 -444 -333 -766h-205q13 48 57 172q45 121 120.5 272.5t147.5 272.5q23 39 69 108.5t60 92.5q33 51 45 73q60 96 74 131q7 16 14 39t12 41l5 19h-522l-60 -256h-155z" />
<glyph unicode="8" horiz-adv-x="1193" d="M143 336q0 55 14.5 105.5t34.5 85t47.5 65t47.5 47t41 29.5q50 34 116 51q-56 25 -98 74q-63 74 -63 180q0 99 49 188q28 52 67.5 92t83 63t83.5 38.5t83 21.5t67 8t48 2q88 0 160 -20q25 -7 51 -18t64.5 -36.5t66.5 -58t49 -86t21 -116.5q0 -60 -17 -111.5t-44.5 -86.5 t-51 -55.5t-47.5 -35.5q-44 -24 -101 -43q38 -13 78 -37q31 -20 58.5 -48t53 -86.5t25.5 -129.5q0 -108 -53 -203q-26 -44 -63 -83t-93.5 -76t-140.5 -59t-184 -22q-183 0 -299 78q-154 100 -154 283zM315 344q0 -114 86 -178t203 -64q67 0 129 21q99 33 162 111.5t63 181.5 q0 55 -24 100q-29 52 -90 94.5t-160 42.5q-74 0 -136.5 -22t-98.5 -45q-134 -98 -134 -242zM453 985q0 -36 13.5 -70.5t26 -51t25.5 -27.5q31 -29 83 -43.5t101 -14.5q21 0 49 3.5t76 20t82 44.5q44 35 69.5 87.5t25.5 108.5q0 103 -73.5 156t-178.5 53q-86 0 -158 -39 q-54 -29 -88 -77.5t-43.5 -84.5t-9.5 -65z" />
<glyph unicode="9" horiz-adv-x="1193" d="M86 311l168 19q8 -38 22 -70q33 -69 96 -105t142 -36q126 0 234 80q51 38 98.5 103t77.5 132q30 64 71 254q-41 -66 -59 -86q-134 -162 -346 -162q-89 0 -160 29q-38 16 -73.5 42t-73.5 69.5t-61 112t-23 151.5q0 101 28 186q14 41 34.5 81t62.5 92.5t94 90.5t133.5 65 t177.5 27q84 0 154 -24q57 -19 105.5 -54.5t93 -94t70.5 -150.5t26 -207q0 -137 -35 -278t-111 -274t-182 -212q-158 -117 -346 -117q-135 0 -249 66t-153 188q-10 29 -16 82zM369 848q0 -114 55 -182q26 -32 74.5 -58t117.5 -26q68 0 144 30q165 72 207 246q16 72 14 129 q-3 56 -18 96q-27 79 -92.5 123.5t-149.5 44.5q-32 0 -65.5 -6.5t-77.5 -24.5t-86 -59t-72 -100q-51 -115 -51 -213z" />
<glyph unicode=":" horiz-adv-x="555" d="M152 0l53 227h203l-54 -227h-202zM322 780l51 228h200l-51 -228h-200z" />
<glyph unicode=";" horiz-adv-x="555" d="M109 -317q94 181 129 317h-86l51 223h200q-18 -137 -69.5 -286t-122.5 -254h-102zM315 782l54 226h204l-51 -226h-207z" />
<glyph unicode="&#x3c;" horiz-adv-x="1482" d="M305 537l43 184l1065 475l-47 -192l-874 -388l698 -387l-41 -176z" />
<glyph unicode="=" horiz-adv-x="1482" d="M215 336l37 156h1077l-37 -156h-1077zM303 719l39 158h1075l-37 -158h-1077z" />
<glyph unicode="&#x3e;" horiz-adv-x="1482" d="M201 35l47 194l874 385l-698 390l41 174l844 -484l-43 -184z" />
<glyph unicode="?" d="M291 1014q0 41 10 82q33 144 133 237q50 50 136 88.5t206 38.5q213 0 334 -125q64 -64 92 -143q17 -57 17 -119q0 -75 -21 -137q-31 -94 -106 -159.5t-174 -94.5q-37 -9 -93 -16l-69 -306h-160l102 441q217 -3 297 127q41 65 41 145q0 59 -28 117q-60 123 -228 123 q-164 0 -250 -123q-61 -90 -61 -205zM498 0l53 229h188l-51 -229h-190z" />
<glyph unicode="@" horiz-adv-x="1765" d="M164 446q0 204 78.5 391t211 323t314 217t379.5 81q267 0 425.5 -153.5t158.5 -411.5q0 -108 -29.5 -224t-81.5 -216q-74 -143 -180 -226.5t-213 -83.5q-75 0 -117 45t-43 129q-46 -59 -96 -98q-95 -74 -201 -74q-120 0 -189 84.5t-69 229.5q0 151 64 290.5t169.5 224.5 t219.5 85q84 0 145 -49q29 -23 46.5 -48.5t37.5 -74.5l35 127h139l-78 -307l-24 -103l-25 -119q-20 -102 -20 -135q0 -84 59 -84q33 0 81 35t89 90q75 102 118.5 234t43.5 262q0 212 -131.5 336.5t-356.5 124.5q-165 0 -321 -73.5t-270.5 -195.5t-184 -287.5t-69.5 -340.5 q0 -268 178 -430t473 -162q214 0 407 96q92 49 148 88q56 40 139 115l62 -84q-163 -158 -359.5 -243t-400.5 -85q-166 0 -320.5 57.5t-251.5 155.5q-190 190 -190 487zM674 473q0 -91 42 -142.5t115 -51.5q74 0 143 60t113.5 160.5t49.5 213.5q0 3 1 8t1 8q0 91 -45 146 t-119 55t-144.5 -65.5t-113.5 -172t-43 -219.5z" />
<glyph unicode="A" horiz-adv-x="1366" d="M0 0l838 1446h221l184 -1446h-186l-51 455h-549l-262 -455h-195zM543 604h446l-71 723z" />
<glyph unicode="B" horiz-adv-x="1449" d="M117 0l334 1446h477q55 0 80.5 -0.5t76.5 -3.5t82.5 -11t72.5 -21.5t73 -36.5t59 -54q74 -89 74 -209q0 -59 -16.5 -110.5t-39 -84t-55 -60t-55.5 -40.5t-49 -24q-59 -24 -139 -37q57 -5 94.5 -16t75.5 -40q118 -95 118 -249q0 -80 -28 -150q-15 -38 -39 -76t-65 -81.5 t-107 -78t-148 -49.5q-79 -14 -213 -14h-663zM330 152h409q106 0 146 4q93 9 145 32q53 21 98 78q23 27 43.5 78t20.5 115q0 53 -16 92q-19 42 -60.5 72t-89.5 45q-50 14 -123 14h-450zM487 834h400q13 0 36 1t35 1q159 10 238 94q64 67 64 172q0 22 -4.5 44.5t-17.5 53 t-43.5 54.5t-74.5 36q-31 8 -80 8h-444z" />
<glyph unicode="C" horiz-adv-x="1579" d="M178 639q0 172 53 322q86 242 280.5 378t451.5 136q423 0 583 -318q30 -67 45 -123l-182 -35q-9 28 -14 43t-19 48t-28 54t-39 51t-54 49.5t-70.5 38.5t-90.5 30q-72 16 -133 16q-32 0 -70.5 -4t-105.5 -24t-121 -54q-69 -43 -123 -110q-37 -45 -70.5 -105.5t-65 -170 t-32.5 -226.5q0 -233 110 -367q114 -147 353 -147q208 0 346 117q52 43 90 94q71 90 100 170l182 -25q-52 -125 -124 -219q-58 -75 -130.5 -130.5t-136 -84t-134.5 -45.5t-114.5 -21t-87.5 -4q-145 0 -264 43q-54 20 -102.5 48.5t-102.5 80.5t-92 117t-63 162.5t-25 214.5z " />
<glyph unicode="D" horiz-adv-x="1492" d="M119 0l334 1446h430q192 0 305 -41q150 -51 237 -203q74 -131 74 -315q0 -127 -30.5 -253.5t-89 -241t-154.5 -205.5t-217 -138q-60 -23 -124 -34.5t-107.5 -13t-129.5 -1.5h-528zM334 147h313q21 0 123 5q41 3 70.5 8t78 20t97.5 48t94 83q53 59 93.5 132t61.5 135.5 t34 128.5t16.5 105.5t3.5 72.5q0 170 -66 268q-17 25 -28 35q-61 67 -143.5 88.5t-194.5 21.5h-289z" />
<glyph unicode="E" horiz-adv-x="1280" d="M115 0l334 1446h940l-35 -154h-758l-111 -477h695l-33 -143h-694l-121 -518h860l-35 -154h-1042z" />
<glyph unicode="F" horiz-adv-x="1150" d="M117 0l334 1446h931l-34 -152h-752l-109 -471h701l-35 -147h-700l-156 -676h-180z" />
<glyph unicode="G" horiz-adv-x="1622" d="M193 618q0 330 182 558q115 142 284 220.5t353 78.5q96 0 192 -25q197 -50 314 -190q80 -94 114 -228l-192 -24q-107 313 -426 313q-60 0 -109 -8q-88 -14 -155.5 -45.5t-133.5 -91.5q-114 -105 -172.5 -250t-58.5 -308q0 -202 96 -335q115 -162 353 -162q156 0 282 70.5 t193 205.5q35 72 61 203h-543l33 150h707l-172 -750h-164l41 180q-27 -41 -60.5 -72.5t-101.5 -66.5q-136 -68 -307 -68q-220 0 -369 109q-43 31 -81.5 74t-76.5 107.5t-60.5 156t-22.5 198.5z" />
<glyph unicode="H" horiz-adv-x="1536" d="M119 0l334 1446h178l-139 -604h798l140 604h178l-334 -1446h-178l159 690h-798l-160 -690h-178z" />
<glyph unicode="I" horiz-adv-x="555" d="M117 0l334 1446h176l-334 -1446h-176z" />
<glyph unicode="J" horiz-adv-x="894" d="M35 12l39 174l32 -16q103 -33 175 -33q41 0 81 10q52 16 86 48t50 61q45 74 84 256l215 934h180l-229 -993q-31 -136 -58.5 -209.5t-68.5 -126.5q-106 -144 -340 -144q-61 0 -111 6.5t-69.5 12t-65.5 20.5z" />
<glyph unicode="K" horiz-adv-x="1323" d="M119 0l334 1446h174l-158 -680l858 680h242l-686 -547l397 -899h-197l-344 786l-323 -256l-123 -530h-174z" />
<glyph unicode="L" d="M117 0l334 1446h180l-299 -1290h686l-35 -156h-866z" />
<glyph unicode="M" horiz-adv-x="1705" d="M119 0l334 1446h215l147 -1294l750 1294h213l-334 -1446h-172l313 1229l-702 -1229h-195l-137 1251l-260 -1251h-172z" />
<glyph unicode="N" horiz-adv-x="1492" d="M117 0l334 1446h194l473 -1251l273 1251h172l-334 -1446h-187l-479 1255l-272 -1255h-174z" />
<glyph unicode="O" horiz-adv-x="1622" d="M197 631q0 164 51.5 318t152.5 274q76 88 177 149q174 103 399 103q97 0 181.5 -20t145 -53t101.5 -66t72 -70q73 -90 111 -214q36 -118 36 -235v-12q-1 -37 -4.5 -76t-17 -107t-35 -130.5t-63.5 -136.5t-97 -134q-93 -102 -198.5 -155.5t-188.5 -71.5q-92 -21 -186 -21 q-243 0 -404 127q-40 32 -76 74.5t-74 107t-60.5 155t-22.5 194.5zM391 629q0 -109 33 -203q48 -144 159.5 -226.5t262.5 -82.5q205 0 364 143q60 54 104 124t66 131t35.5 128t16 104.5t2.5 71.5v9q0 90 -18 164q-19 78 -52.5 131t-69.5 88t-77 59q-103 61 -240 61 q-40 0 -82.5 -6.5t-103 -24.5t-123 -61t-113.5 -106q-53 -65 -89 -145t-50.5 -154t-19.5 -120.5t-5 -84.5z" />
<glyph unicode="P" horiz-adv-x="1323" d="M115 0l334 1446h583q234 0 340 -139q72 -91 72 -230q0 -253 -211 -375q-66 -38 -150 -61q-98 -25 -249 -25h-398l-141 -616h-180zM471 768h324q61 0 89 0.5t82 6.5t86.5 17.5t72 35.5t69.5 59q70 81 70 188q0 33 -11 76q-11 35 -41.5 72t-85.5 55q-43 14 -108 14h-424z " />
<glyph unicode="Q" horiz-adv-x="1622" d="M174 637q0 44 5.5 95t22 127.5t55 162.5t95.5 162q48 63 104 113t112 80t108.5 51t105 30.5t88 13t70.5 3.5q174 0 313 -72q43 -22 82.5 -52t84.5 -81.5t77.5 -113t54 -150t21.5 -189.5q0 -302 -162 -530q-22 -32 -68 -80l185 -148l-129 -122l-197 155q-28 -22 -61 -39 q-157 -80 -344 -80q-246 0 -414 152q-106 93 -157.5 226.5t-51.5 285.5zM369 623q0 -137 41 -240q26 -66 68.5 -116.5t85.5 -78t92.5 -44.5t83.5 -22t65 -5q37 0 81 8.5t102 28.5t120.5 64t114.5 106q78 96 118.5 228t40.5 265q0 162 -55 281q-28 61 -71 106.5t-83.5 69.5 t-88.5 38t-79.5 17.5t-62.5 3.5q-32 0 -70 -6t-91.5 -21t-111 -50.5t-104.5 -86.5q-96 -101 -146 -249t-50 -297z" />
<glyph unicode="R" horiz-adv-x="1366" d="M117 0l334 1446h583q84 0 140.5 -11t115.5 -49q108 -67 140 -192q16 -64 16 -115q-2 -59 -20.5 -125t-49.5 -114q-34 -49 -99.5 -97.5t-162.5 -74.5q-38 -10 -70 -15l250 -653h-196l-234 629h-424l-145 -629h-178zM475 780h416q221 0 313 123q60 81 60 178q0 98 -66 156 q-65 55 -165 55h-4h-5h-430z" />
<glyph unicode="S" horiz-adv-x="1366" d="M125 467l192 37q-1 -19 -1 -37q0 -117 51 -201q38 -64 121 -111q81 -46 207 -46h5q85 0 152 18.5t104 42.5q50 30 84 80q52 72 52 151q0 89 -70 152q-39 34 -158 82l-176 70q-34 13 -125 57q-30 15 -46 24t-54 38.5t-59.5 59t-39.5 79.5q-18 47 -18 102v6q0 106 51 189 q101 162 357 202q3 0 20.5 2.5t34 4.5t40.5 4t44 2q24 0 47 -1t76 -8.5t98 -21t98.5 -42t92.5 -67.5q34 -39 53 -71q52 -87 57 -179l-178 -43q-12 81 -45 140q-87 153 -307 153q-181 0 -279 -90q-69 -69 -69 -158q0 -50 26 -86q26 -40 76 -68t154 -69l165 -65 q109 -45 160 -80q160 -110 160 -291q0 -156 -96 -272q-36 -44 -101.5 -88t-160.5 -70q-102 -25 -220 -25q-231 0 -385 95l-10 7q-10 7 -14.5 10.5t-15.5 11.5t-18.5 15t-17.5 16.5t-19 20.5t-17 23q-75 106 -78 295z" />
<glyph unicode="T" d="M256 1290l35 156h1061l-35 -156h-443l-296 -1290h-183l307 1290h-446z" />
<glyph unicode="U" horiz-adv-x="1449" d="M219 399q0 117 47 318l168 729h180l-174 -748q-6 -25 -12.5 -70t-9.5 -59q-15 -96 -15 -137q0 -92 25 -151q28 -63 99.5 -108.5t191.5 -45.5q134 0 225 53q39 26 66 53q58 60 95.5 152t76.5 266l182 795h180l-201 -868q0 -2 -5.5 -23t-10.5 -43t-14.5 -55t-19.5 -63.5 t-23.5 -64.5t-26.5 -61q-120 -235 -389 -282q-74 -13 -145 -13q-94 0 -172.5 20t-131.5 54t-87.5 70.5t-55.5 77.5q-43 88 -43 204z" />
<glyph unicode="V" horiz-adv-x="1193" d="M291 1446h182l94 -1237l658 1237h192l-796 -1446h-191z" />
<glyph unicode="W" horiz-adv-x="2048" d="M262 1446h174l117 -1217l627 1217h174l114 -1217l619 1217h188l-768 -1446h-166l-108 1255l-639 -1255h-182z" />
<glyph unicode="X" horiz-adv-x="1193" d="M-39 0l643 756l-282 690h186l223 -559l459 559h213l-606 -715l305 -731h-191l-245 602l-494 -602h-211z" />
<glyph unicode="Y" horiz-adv-x="1193" d="M289 1446h182l195 -653l565 653h217l-735 -817l-144 -629h-182l150 649z" />
<glyph unicode="Z" horiz-adv-x="1193" d="M-2 0l43 184l1028 1100h-784l37 162h1001l-37 -162l-1048 -1126h921l-37 -158h-1124z" />
<glyph unicode="[" horiz-adv-x="567" d="M25 -295l436 1890h379l-29 -120h-213l-381 -1649h213l-29 -121h-376z" />
<glyph unicode="\" horiz-adv-x="768" d="M264 1446h160l274 -1446h-163z" />
<glyph unicode="]" horiz-adv-x="567" d="M-121 -295l29 123h213l379 1649h-213l28 118h377l-436 -1890h-377z" />
<glyph unicode="^" horiz-adv-x="1482" d="M281 588l608 858h186l223 -858h-178l-162 692l-477 -692h-200z" />
<glyph unicode="_" horiz-adv-x="1024" d="M-184 -438l37 153h1062l-34 -153h-1065z" />
<glyph unicode="`" horiz-adv-x="598" d="M147 1399h207l97 -312h-109z" />
<glyph unicode="a" horiz-adv-x="1024" d="M74 219q0 68 37 139q38 74 104.5 113.5t161.5 60.5q62 13 196.5 31t202.5 33q21 97 21 127q0 60 -44 98.5t-143 38.5q-81 0 -131 -26q-82 -44 -104 -168l-182 16q16 46 31.5 78.5t50 78t77.5 74t114 49.5t159 21q142 0 233 -59q47 -28 74 -68q31 -44 31 -113 q0 -43 -19 -129l-88 -378q-8 -36 -8 -60q0 -35 24 -45q12 -4 27 -4q25 0 64 14l-31 -133q-57 -14 -96 -14q-36 0 -60 8q-14 4 -28.5 12.5t-31.5 31t-22 52.5q-2 16 2 43q-23 -37 -41 -55q-106 -106 -295 -106q-65 0 -116 16t-82 40.5t-51.5 57t-28.5 63.5t-8 62zM252 233 q0 -52 39 -92.5t125 -40.5q48 0 109.5 20.5t97.5 49.5q11 9 21.5 19.5t18 20.5t15 22t12 21t9.5 22t7.5 20.5t5.5 19.5t4 16.5t3 14.5l2 10l27 115q-113 -13 -207 -29q-141 -22 -213 -73q-76 -53 -76 -136z" />
<glyph unicode="b" horiz-adv-x="1150" d="M90 0l336 1446h156l-144 -625q28 41 51 62q106 100 267 100q61 0 122.5 -21.5t106.5 -60.5q64 -57 94.5 -142t30.5 -179q0 -127 -49 -259t-135 -215q-134 -124 -340 -124q-177 0 -250 94q-29 36 -47 102l-41 -178h-158zM348 358q0 -61 16 -108t40.5 -74.5t57 -44.5 t61 -23t57.5 -6q67 0 130.5 30t108.5 81q57 63 92 167t37 195v7q0 141 -80 213q-61 55 -159 55q-26 0 -53.5 -4.5t-63.5 -19t-67 -36.5t-63 -62t-54 -91q-26 -58 -43 -137.5t-17 -141.5z" />
<glyph unicode="c" horiz-adv-x="1042" d="M127 381q0 175 70 309q31 60 73 111q156 188 394 188q73 0 139 -18q81 -25 142 -77.5t85 -127.5q6 -17 12 -70l-151 -34q-7 27 -13 46.5t-24 50.5t-41 50.5t-63 34.5q-38 14 -87 14h-6q-80 0 -149 -41q-56 -34 -98 -85.5t-63.5 -99.5t-34.5 -102t-16 -84.5t-3 -54.5 q0 -121 52.5 -192.5t119.5 -92.5q35 -12 82 -12q41 0 74 8q47 14 93 47t74 74q9 13 16.5 28t12 25t9 22.5t5.5 14.5l168 -22q-22 -50 -42 -84t-54 -72q-76 -87 -162 -123.5t-206 -36.5q-78 0 -156 23q-44 14 -83.5 39t-80 68t-64.5 114t-24 162z" />
<glyph unicode="d" horiz-adv-x="1150" d="M129 389q0 102 33 209q56 176 184.5 280.5t310.5 104.5q133 0 217 -68q38 -31 54 -63q9 -18 20 -74l156 668h158l-334 -1446h-158l29 131q-40 -56 -94 -90q-51 -33 -98 -46t-109 -13q-64 0 -105 10q-91 20 -152 82.5t-86.5 142t-25.5 172.5zM297 395q0 -141 68 -215 q64 -74 174 -74q115 0 202 87q70 68 110 183.5t42 223.5v12q0 149 -98 209q-57 35 -131 35q-155 0 -254 -127q-40 -49 -76.5 -137t-36.5 -197z" />
<glyph unicode="e" horiz-adv-x="1067" d="M127 387q0 40 6 86t24 115.5t61 142t106 129.5q139 129 335 129q170 0 267 -100q98 -107 98 -295q0 -63 -12 -129h-723q-4 -37 -4 -70q0 -76 21 -129q28 -73 91 -116q71 -50 160 -50q61 2 119.5 28t97.5 71q30 36 57 98l154 -27q-17 -42 -39 -77q-23 -36 -55 -69 t-82.5 -69t-124.5 -58t-160 -22q-70 0 -141 21q-129 41 -192.5 145.5t-63.5 245.5zM319 584h545q1 18 1 36q0 67 -21 117q-16 40 -43 67.5t-57.5 39t-53 16t-41.5 4.5q-50 0 -90 -16q-104 -36 -174 -131q-26 -32 -43 -70q-8 -18 -23 -63z" />
<glyph unicode="f" horiz-adv-x="555" d="M111 0l194 842h-153l28 123h152l59 254q18 80 45 133q25 46 66.5 73t70.5 33t56 6q35 0 72 -8t49 -14l-29 -123q-44 8 -76 8q-28 0 -49 -12q-19 -12 -29 -37.5t-22 -77.5l-56 -235h173l-27 -123h-174l-195 -842h-155z" />
<glyph unicode="g" d="M27 -154q0 16 6 66l164 18q-13 -51 -13 -73q0 -44 25 -88q26 -39 77 -68t130 -29q169 0 246 148q39 70 92 278q-32 -27 -37 -30q-104 -86 -244 -86q-104 0 -186 53q-80 52 -120 147t-40 199q0 75 25 172q22 90 60 162t83.5 118t86 74t83.5 45q85 31 174 31q72 0 117 -16 q102 -34 166 -144l30 142h156l-209 -912q-72 -316 -207 -420q-111 -84 -282 -84q-26 0 -54 2.5t-80 12.5t-101.5 37.5t-84.5 68.5q-63 74 -63 176zM293 381q0 -63 14.5 -112.5t37 -79.5t53.5 -49t60.5 -26.5t61.5 -7.5q43 0 83 15t66 34t50.5 46.5t35 43t19.5 31.5 q30 55 55 152q27 114 29 182q0 119 -47 178q-29 29 -47 39q-48 29 -113 29q-84 0 -164 -49q-52 -33 -90.5 -86t-57.5 -102t-30.5 -104.5t-13.5 -84t-2 -49.5z" />
<glyph unicode="h" d="M92 0l334 1446h160l-150 -645q33 53 84 96q108 92 258 92q164 0 234 -100q39 -61 39 -127t-23 -158l-139 -604h-162l143 623q15 61 15 96q0 66 -44.5 102.5t-113.5 36.5q-54 0 -111 -20q-50 -19 -94.5 -54.5t-87.5 -107.5q-28 -49 -41 -88q-12 -32 -35 -129l-106 -459 h-160z" />
<glyph unicode="i" horiz-adv-x="468" d="M84 0l223 965h162l-221 -965h-164zM373 1262l43 184h168l-43 -184h-168z" />
<glyph unicode="j" horiz-adv-x="468" d="M-199 -459l31 131q36 -4 66 -4q83 0 112 45q20 33 41 129l268 1123h156l-260 -1121q-5 -27 -22 -92q0 -1 -3.5 -12t-7 -23t-9.5 -27.5t-13.5 -31.5t-16.5 -29q-36 -57 -93.5 -76.5t-139.5 -19.5q-51 0 -109 8zM381 1264l41 182h164l-43 -182h-162z" />
<glyph unicode="k" horiz-adv-x="980" d="M84 0l334 1446h160l-205 -883l510 402h215l-496 -390l369 -575h-197l-297 473l-151 -117l-82 -356h-160z" />
<glyph unicode="l" horiz-adv-x="468" d="M84 0l334 1446h160l-334 -1446h-160z" />
<glyph unicode="m" horiz-adv-x="1622" d="M88 0l223 965h158l-37 -156q46 60 72 84q41 39 95.5 62.5t88 28.5t62.5 5q70 0 129 -30.5t84 -90.5q12 -28 16 -59q50 63 84 90q35 31 103 60.5t151 29.5q40 0 87.5 -14.5t78.5 -38.5q78 -56 78 -178q0 -48 -31 -195l-131 -563h-158l131 565q29 131 29 164q0 65 -42.5 99 t-109.5 34q-71 0 -137 -39q-72 -43 -106 -107t-58 -167l-127 -549h-157l112 492q5 24 14 61t13 56t9 43t7 40.5t2 30.5q0 94 -71 125q-33 14 -74 14q-57 0 -107 -26q-36 -17 -81.5 -63.5t-77.5 -115.5q-27 -55 -50 -157l-114 -500h-158z" />
<glyph unicode="n" d="M84 0l223 965h162l-31 -140q20 21 32.5 33t48 40.5t68 45t82 31t99.5 14.5q49 0 104 -18q18 -6 36.5 -15t44 -28t44.5 -42.5t33 -61t14 -81.5q0 -58 -22 -161l-135 -582h-160l137 596q15 63 15 111q0 74 -45.5 113.5t-120.5 39.5q-93 0 -155.5 -38t-96.5 -83 q-33 -41 -56.5 -100t-48.5 -164l-110 -475h-162z" />
<glyph unicode="o" d="M127 399q0 27 3.5 61.5t14 87t34.5 111t59 107.5q56 78 145 139q130 84 285 84q86 0 161 -31q32 -13 61 -31t62 -49.5t57 -71t41 -99t19 -129.5v-19q0 -213 -129 -383q-154 -201 -408 -201q-84 0 -157 27q-42 16 -80.5 43t-78.5 72.5t-64.5 118.5t-24.5 163zM291 387 q0 -176 104 -246q63 -43 137 -43q28 0 63.5 7.5t86.5 34.5t90 69q68 73 102 178q32 97 31 192v17q0 68 -20 119q-26 70 -83.5 109.5t-131.5 39.5q-73 0 -144 -35q-78 -37 -133 -111.5t-78.5 -158t-23.5 -172.5z" />
<glyph unicode="p" d="M-12 -440l323 1405h160l-29 -121q21 26 41 45t55 43.5t83.5 37.5t107.5 13q60 0 111 -16q43 -13 81 -37t75 -65t59 -109.5t22 -155.5q0 -91 -18 -172.5t-48.5 -141.5t-59.5 -100.5t-60 -70.5q-77 -77 -170 -109q-75 -24 -152 -24q-171 0 -250 116q-17 24 -32 68 l-142 -606h-157zM342 342q0 -74 23 -119q20 -41 70 -75.5t128 -34.5q81 0 156 49q54 35 94.5 89.5t59.5 103.5t30 106.5t13 86t2 54.5q0 67 -21 121q-26 62 -82 96.5t-125 34.5q-31 0 -64.5 -8.5t-74 -28.5t-78.5 -63t-65 -103q-29 -64 -47.5 -151t-18.5 -158z" />
<glyph unicode="q" d="M129 383q0 205 98 362q17 26 36.5 50.5t58 61t81 62.5t104.5 45t130 19q26 0 54.5 -2.5t86 -23t88.5 -58.5q28 -35 45 -102l39 168h158l-324 -1405h-157l131 573q-18 -23 -25 -33q-96 -118 -260 -118q-81 0 -143 30q-37 17 -70 44.5t-64 70.5t-49 109t-18 147zM297 381 q1 -74 21 -128.5t52.5 -83.5t68 -42.5t73.5 -13.5q45 0 90 16q112 38 176 162q35 66 61 179q23 102 23 173v16q-4 90 -63 143.5t-150 53.5q-63 0 -123 -29t-104 -77q-49 -55 -87 -149t-38 -220z" />
<glyph unicode="r" horiz-adv-x="641" d="M86 0l221 965h158l-39 -170q23 40 27 45q21 30 63 66.5t72 49.5q59 27 125 27q6 0 18.5 -1t18.5 -1l-35 -154q-18 3 -39.5 3t-46.5 -3q-99 -17 -164 -96q-73 -85 -119 -278l-104 -453h-156z" />
<glyph unicode="s" horiz-adv-x="980" d="M94 268q0 31 6 64l164 26q0 -1 -3.5 -16.5t-6 -32.5t-2.5 -33q0 -91 63 -139q56 -41 166 -41q145 0 209 76q35 42 35 94q0 48 -32.5 78t-112.5 62l-170 65l-10 5q-10 4 -21.5 9.5t-26 13t-24.5 13.5q-117 72 -117 190q0 90 59 160q110 127 328 127q250 0 317 -149 q23 -46 23 -105q0 -14 -2 -37l-156 -26q6 18 6 55q0 34 -14 57q-19 34 -61.5 60t-110.5 26q-86 0 -143 -32q-33 -18 -54.5 -49t-21.5 -66q0 -15 5 -28.5t10 -23t17 -19.5t19.5 -15.5t24.5 -13.5t23 -10.5t25.5 -10t22.5 -8.5l158 -62q12 -5 35.5 -15.5t28.5 -12.5 q147 -67 147 -209q0 -70 -32 -132.5t-89 -105.5q-62 -48 -135 -65t-168 -17q-78 0 -141 15q-26 5 -51 14t-61 30t-62 49.5t-45 77t-19 107.5z" />
<glyph unicode="t" horiz-adv-x="555" d="M152 840l28 125h154l72 305h153l-72 -305h170l-26 -125h-172l-121 -529q-23 -109 -23 -123q0 -35 18 -48t54 -13q17 0 111 16l-29 -120q-3 -1 -8.5 -4.5t-11 -5.5t-13.5 -3q-41 -16 -123 -16q-72 0 -115.5 33.5t-43.5 103.5q0 48 22 150l131 559h-155z" />
<glyph unicode="u" d="M152 209q0 35 30 182l131 574h162l-133 -574q-20 -87 -20 -141q0 -39 12 -64q15 -28 57 -49.5t103 -21.5q141 0 233 96q16 17 29.5 37t23.5 36.5t20 41.5t15.5 39.5t13.5 44.5t11 42t10.5 46t9.5 43l98 424h154l-223 -965h-154l35 152q-42 -49 -53 -58 q-59 -53 -138.5 -82.5t-160.5 -29.5q-66 0 -117 18q-47 16 -79 44.5t-46 60.5t-19 56.5t-5 47.5z" />
<glyph unicode="v" horiz-adv-x="937" d="M197 965h151l66 -797l467 797h176l-596 -965h-170z" />
<glyph unicode="w" horiz-adv-x="1536" d="M199 965h153l64 -789l411 789h158l70 -789l426 789h170l-559 -965h-158l-66 786l-417 -786h-158z" />
<glyph unicode="x" horiz-adv-x="894" d="M-47 0l465 502l-137 463h155l94 -351l314 351h186l-444 -486l139 -479h-158l-94 369l-328 -369h-192z" />
<glyph unicode="y" horiz-adv-x="937" d="M-111 -467l33 139q50 -4 76 -4q42 0 74 13q15 6 29 16t23 17.5t21 24t16 23t17 28t15 24.5l118 202l-108 949h159l76 -770l426 770h178l-729 -1233q-51 -82 -73 -107q-50 -61 -103.5 -79.5t-144.5 -18.5q-54 0 -103 6z" />
<glyph unicode="z" horiz-adv-x="937" d="M-2 0l31 129l729 696h-545l31 140h737l-35 -152l-706 -674h612l-33 -139h-821z" />
<glyph unicode="{" horiz-adv-x="575" d="M98 590l27 123q78 2 121 22q39 20 60.5 60.5t43.5 134.5l76 330q34 138 53 186q19 47 64 92q38 37 82.5 49t140.5 15l80 2l-29 -119h-35q-47 0 -71.5 -7t-44.5 -26q-20 -20 -31 -45q-19 -42 -43 -145l-80 -342q-33 -136 -81.5 -195.5t-147.5 -81.5q116 -42 116 -164 q0 -47 -16 -119l-74 -323q-24 -106 -24 -131q0 -90 114 -90h33l-26 -119h-78q-98 0 -152.5 51.5t-54.5 142.5q0 52 24 160l76 320q17 70 17 104q0 54 -31 79t-109 36z" />
<glyph unicode="|" horiz-adv-x="483" d="M23 -293l434 1888h166l-437 -1888h-163z" />
<glyph unicode="}" horiz-adv-x="575" d="M-117 -303l29 119h35q47 0 71.5 6.5t44.5 25.5q19 19 31 46q18 38 43 143l80 342q32 136 81.5 196t147.5 82q-116 39 -116 162q0 47 16 119l74 324q24 106 24 131q0 92 -114 92h-33l27 117h77q98 0 152.5 -51.5t54.5 -143.5q0 -50 -24 -158l-76 -321q-16 -62 -16 -103 q0 -55 30.5 -80t110.5 -34l-29 -123q-71 -2 -121 -25q-40 -20 -61 -59t-43 -133l-76 -332q-25 -113 -53 -184q-21 -54 -64 -93q-40 -38 -85.5 -51.5t-137.5 -13.5h-80z" />
<glyph unicode="~" horiz-adv-x="1482" d="M213 594q88 91 137 125q110 78 232 78q50 0 82 -11q55 -14 139 -57l117 -59q64 -33 91.5 -42.5t57.5 -9.5q71 0 145 48q35 21 62 43t78 71l82 -135q-58 -56 -95 -85t-86 -58q-105 -60 -198 -60q-52 0 -103 16.5t-131 61.5l-65 37q-106 61 -197 61q-37 0 -72 -12 q-25 -9 -50.5 -26.5t-45.5 -34.5t-74 -66l-24 -22z" />
<glyph unicode="&#xa1;" horiz-adv-x="555" d="M72 0l114 475l156 508h94l-78 -532l-104 -451h-182zM338 1219l53 227h203l-53 -227h-203z" />
<glyph unicode="&#xa2;" horiz-adv-x="1024" d="M141 364.5v20.5q0 107 31 203t81 164t105.5 116t112.5 74q73 32 193 41l36 164h123l-37 -164q111 -15 187 -97t88 -192l-152 -37q-21 91 -58.5 133.5t-96.5 53.5l-160 -740q46 0 86.5 17.5t67 41.5t49 56.5t33 53.5t18.5 42l170 -20q-25 -72 -92 -156 q-137 -159 -354 -157h-7l-43 -189h-133l43 195q-1 0 -16 4t-27 7.5t-31.5 11.5t-35.5 18q-38 22 -69 53.5t-49.5 60.5t-31.5 67t-19 61t-9 55t-3 38.5zM311 383q0 -154 88 -229q9 -8 20.5 -15t18.5 -10.5t15.5 -7.5t9.5 -4l170 735q-67 -11 -101 -27q-95 -47 -158 -164.5 t-63 -277.5z" />
<glyph unicode="&#xa3;" horiz-adv-x="1474" d="M4 166q0 48 25 86q26 42 92 76t158 34q16 0 32 -1.5t27 -2.5t29 -5.5t25 -6t27.5 -8.5t25 -8.5t29 -10.5t28.5 -10q29 58 43 107t43 180h-328l31 131h327q4 23 23 144.5t35 185.5q6 26 10 41t15.5 47t23.5 54.5t33.5 54.5t46.5 56t61.5 50t79.5 45q119 55 258 55 q79 -1 144.5 -18t109.5 -45t72.5 -58.5t46.5 -64.5q28 -56 37 -158l-182 -35q7 36 3 67.5t-24 63.5q-29 43 -86 77t-143 34q-54 0 -102 -15t-81 -38.5t-53.5 -45t-34.5 -42.5q-25 -36 -53 -111q-14 -44 -22.5 -86t-21 -116t-26.5 -142h359l-31 -131l-358 -2 q-30 -165 -125 -344q31 -17 75.5 -38t73.5 -34l29 -12q27 -12 68 -19q30 -10 67 -10q78 0 131 60q23 25 35 50.5t27 82.5l174 -21q-17 -60 -27 -86q-49 -110 -127 -168q-87 -67 -215 -67q-131 2 -287 82q-63 26 -112 59q-31 -36 -53 -51q-119 -90 -254 -90q-43 0 -91.5 13 t-80.5 36q-22 15 -42 48.5t-20 80.5zM133 172q0 -14 10 -29q26 -32 90 -32q31 1 66 13t54 22t30 18q13 11 37 37q-3 1 -16.5 6t-22 7.5t-25 7.5t-30.5 7.5t-33.5 4.5t-38.5 2q-64 0 -98 -25q-23 -15 -23 -39z" />
<glyph unicode="&#xa4;" horiz-adv-x="1378" d="M150 252l165 139q-40 72 -56.5 129.5t-16.5 126.5q0 118 47 230q22 54 42 85t64 76l-135 160l127 111l131 -156q153 84 311 84q187 0 332 -113l164 140l105 -125l-164 -142q69 -110 69 -239q0 -227 -151 -404l133 -159l-127 -109l-133 158q-149 -86 -316 -86 q-100 0 -169 24t-152 88l-168 -141zM412 655q0 -151 94 -248.5t239 -97.5q179 0 301.5 123.5t122.5 304.5q0 155 -95.5 249.5t-252.5 94.5q-177 0 -293 -121.5t-116 -304.5z" />
<glyph unicode="&#xa5;" horiz-adv-x="1249" d="M137 446l29 132h381l8 43l-8 47h-361l33 133h275l-197 579h182l203 -628l557 628h217l-534 -579h274l-31 -133h-370l-66 -72l-4 -18h420l-31 -132h-420l-102 -446h-178l102 446h-379z" />
<glyph unicode="&#xa6;" horiz-adv-x="483" d="M20 -293l191 823h170l-191 -823h-170zM268 772l189 823h170l-191 -823h-168z" />
<glyph unicode="&#xa7;" horiz-adv-x="1236" d="M125 -123l39 168q255 -201 467 -201q88 0 153.5 45.5t65.5 130.5q0 44 -27 81.5t-71 64t-100 54.5t-114.5 52.5t-114.5 58.5t-100 71.5t-71 92.5t-27 121q0 120 74 202.5t195 119.5q-103 100 -103 221q0 138 108 224.5t249 86.5q108 0 217 -34t196 -95l-35 -159 q-194 139 -368 139q-81 0 -140 -41t-59 -119q0 -36 13 -64.5t40.5 -49t51 -33t61.5 -27.5q152 -64 164 -69q69 -30 114.5 -56t90.5 -66t67.5 -94.5t22.5 -123.5q0 -81 -42.5 -153t-111.5 -118q-43 -29 -119 -55q105 -94 105 -223q0 -80 -31.5 -144t-85 -103.5t-122 -60 t-146.5 -20.5q-120 0 -265 51t-241 125zM383 647q0 -120 192 -209l201 -94q103 0 176.5 52.5t73.5 150.5q0 75 -48 123.5t-130 85.5q-35 15 -103.5 46.5t-103.5 47.5q-66 -2 -122 -22t-96 -66.5t-40 -114.5z" />
<glyph unicode="&#xa8;" horiz-adv-x="598" d="M-16 1130l47 207h186l-47 -207h-186zM381 1130l47 207h186l-47 -207h-186z" />
<glyph unicode="&#xa9;" horiz-adv-x="1720" d="M233 727q0 150 57 285t154.5 232t232.5 153.5t286 56.5q200 0 367.5 -96t264.5 -262.5t97 -364.5v-10q0 -196 -98 -363t-266.5 -264.5t-366.5 -97.5q-150 0 -285 57.5t-232 155t-154 233t-57 285.5zM297 723q0 -180 89 -332.5t241.5 -241t333.5 -88.5q177 0 330 88.5 t243 238t90 321.5q0 143 -50.5 269t-138 216.5t-210.5 142.5t-262 52q-137 0 -260.5 -52.5t-212 -141t-141 -212t-52.5 -260.5zM541 666q0 150 63 271.5t175 191t249 69.5q160 0 252.5 -75t124.5 -232l-145 -29q-23 111 -81.5 160t-166.5 49q-143 0 -231.5 -109t-88.5 -286 q0 -138 69.5 -216.5t192.5 -78.5q97 0 160.5 47.5t104.5 151.5l135 -39q-62 -152 -162 -223.5t-254 -71.5q-175 0 -286 117.5t-111 302.5z" />
<glyph unicode="&#xaa;" horiz-adv-x="724" d="M291 1018q0 56 33 100q25 33 73 55t85 30t106 17.5t88 12.5l22 4q11 44 11 61q0 30 -11 45q-28 35 -92 35q-79 0 -114 -61q-8 -13 -17 -51l-117 8q17 49 33 76q73 108 223 108q31 0 63 -7t65 -22t54 -44.5t21 -69.5q0 -33 -10 -78l-43 -184q-12 -50 -12 -66q0 -24 22 -24 t45 14l-22 -92q-1 -1 -11 -3.5t-24 -5t-25 -2.5q-44 0 -62 19t-26 53q-18 -23 -43.5 -39.5t-46 -24t-45.5 -11.5t-33 -4.5t-16 -0.5q-70 -2 -122 39t-52 113zM403 1018q0 -72 91 -72q95 0 147 76q11 15 25 70q3 10 7 28.5t7 28.5l-23 -2q-56 -5 -96 -12.5t-79 -21.5t-59 -38 t-20 -57z" />
<glyph unicode="&#xab;" horiz-adv-x="811" d="M152 602l30 135l338 236l-45 -195l-182 -119l123 -139l-39 -162zM502 600l33 137l335 232l-43 -193l-184 -119l125 -135l-39 -170z" />
<glyph unicode="&#xac;" horiz-adv-x="1482" d="M195 537l36 161h1160l-158 -686h-180l118 525h-976z" />
<glyph unicode="&#xad;" horiz-adv-x="757" d="M143 537l37 155h574l-35 -155h-576z" />
<glyph unicode="&#xae;" horiz-adv-x="1720" d="M231 725q0 150 57.5 285t155 232.5t233.5 154.5t286 57q117 0 227.5 -36.5t200 -103t157.5 -154.5t105 -197t37 -224q0 -157 -56 -295t-153 -236t-233 -155t-290 -57q-198 0 -365.5 97t-264.5 264.5t-97 367.5zM307 723q0 -181 87 -332t237 -238t330 -87q175 0 326 87.5 t240 236.5t89 321q0 189 -85.5 343t-235.5 242t-334 88q-178 0 -328.5 -88t-238 -240.5t-87.5 -332.5zM586 276l211 910h202q116 0 176 -18.5t97 -65.5q23 -29 37 -71.5t14 -82.5q0 -116 -65 -186t-191 -90l139 -396h-147l-131 381h-111l-90 -381h-141zM846 780h119 q102 0 147 27q31 21 49.5 55.5t18.5 75.5q0 46 -29 88q-15 22 -44 29.5t-93 7.5h-103z" />
<glyph unicode="&#xaf;" horiz-adv-x="598" d="M-12 1130l32 160h590l-32 -160h-590z" />
<glyph unicode="&#xb0;" horiz-adv-x="724" d="M129 1217q0 136 96.5 232.5t233.5 96.5q138 0 235 -95.5t97 -233.5q0 -137 -97.5 -234.5t-234.5 -97.5t-233.5 97.5t-96.5 234.5zM297 1221q0 -66 48 -114t114 -48q67 0 114.5 47.5t47.5 114.5t-47 114t-115 47t-115 -47t-47 -114z" />
<glyph unicode="&#xb1;" horiz-adv-x="1482" d="M176 0l37 158h1098l-37 -158h-1098zM344 729l37 158h457l102 444h180l-102 -444h459l-35 -158h-461l-102 -450h-181l103 450h-457z" />
<glyph unicode="&#xb2;" horiz-adv-x="811" d="M127 459l27 121q83 45 217 131l18 11q18 12 42.5 28t57.5 41.5t65 53.5t64 63.5t56.5 71.5t39.5 77.5t15 81.5q0 60 -37 98t-98 41q-91 3 -142 -63t-51 -150q0 -1 5 -64l-130 27v25q0 78 22.5 138t56 94.5t78 56t82 29t73.5 7.5q69 0 127.5 -22.5t99 -77t41.5 -133.5 q2 -256 -358 -479q-125 -77 -197 -107l471 8l-24 -108h-621z" />
<glyph unicode="&#xb3;" horiz-adv-x="811" d="M147 733l129 17q1 -21 4 -42.5t16 -53t33 -55t58.5 -41.5t89.5 -19q57 -1 99.5 16.5t64.5 46t32 58.5t9 59q-1 33 -13 59t-27.5 42.5t-44.5 28t-48.5 17t-55 8.5t-49.5 3h-45h-16l23 100q36 -4 49 -4q178 0 243 82q31 40 31 92q1 30 -9.5 58t-46 51.5t-91.5 23.5 q-87 0 -137 -58.5t-50 -144.5l-133 25q21 92 47 137q85 139 281 139q50 -1 95 -14.5t83.5 -39.5t61.5 -71.5t24 -103.5q0 -92 -61.5 -152.5t-155.5 -72.5q65 -16 92 -37q82 -65 82 -176q-1 -69 -33.5 -123t-83.5 -84.5t-105.5 -45.5t-109.5 -16q-45 0 -86 7.5t-85 26 t-80.5 56.5t-57.5 91q-6 16 -11 35.5t-6.5 32.5t-3.5 27t-2 15z" />
<glyph unicode="&#xb4;" horiz-adv-x="598" d="M90 1092l178 307h240l-293 -307h-125z" />
<glyph unicode="&#xb5;" horiz-adv-x="1120" d="M-4 -442l328 1407h155l-110 -480q-31 -139 -31 -194q0 -82 48.5 -128t133.5 -46q71 0 135 37t111 106q34 48 53 99t45 167l101 439h161l-170 -752q-6 -24 -6 -47q0 -51 51 -51q24 0 60 14l-31 -133q-60 -14 -102 -14q-156 0 -156 124v39q-66 -91 -133.5 -129.5 t-161.5 -38.5q-144 0 -194 115l-119 -534h-168z" />
<glyph unicode="&#xb6;" horiz-adv-x="1310" d="M309 1012q0 103 45.5 193.5t128.5 150.5q71 51 153.5 70.5t229.5 19.5h463l-26 -111h-70l-387 -1677h-117l387 1677h-297l-387 -1677h-117l232 1004q-115 38 -176.5 129t-61.5 221z" />
<glyph unicode="&#xb7;" horiz-adv-x="409" d="M127 467l57 254h207l-55 -254h-209z" />
<glyph unicode="&#xb8;" horiz-adv-x="598" d="M147 -383l13 53q16 -2 38 0t41.5 6t33 19t12.5 39q0 20 -9.5 34.5t-29 22.5t-32 11.5t-36.5 7.5l164 227h74l-88 -121q56 -3 89.5 -33.5t33.5 -87.5q0 -61 -43.5 -108.5t-106.5 -65.5q-30 -10 -86 -10q-35 0 -68 6z" />
<glyph unicode="&#xb9;" horiz-adv-x="811" d="M309 1120l23 101q18 -2 47 -2q188 0 223 159h119l-213 -919h-119l162 694q-74 -37 -172 -37q-16 0 -70 4z" />
<glyph unicode="&#xba;" horiz-adv-x="724" d="M285 1106q0 68 20 130.5t58.5 113t100.5 80t140 28.5q38 -1 73.5 -12.5t72 -37t59 -77.5t22.5 -123q0 -36 -10 -88q-25 -117 -106.5 -188.5t-190.5 -71.5q-110 0 -174.5 69.5t-64.5 176.5zM391 1108q0 -65 33 -114.5t102 -49.5q64 0 111.5 45.5t67.5 105.5t20 122 t-32.5 109.5t-98.5 47.5q-76 0 -139.5 -71.5t-63.5 -194.5z" />
<glyph unicode="&#xbb;" horiz-adv-x="811" d="M100 356l45 193l183 119l-125 135l39 166l227 -244l-33 -137zM453 354l45 193l180 121l-121 139l37 160l225 -242l-31 -137z" />
<glyph unicode="&#xbc;" horiz-adv-x="1878" d="M309 1120l23 101q18 -2 47 -2q188 0 223 159h119l-213 -919h-119l162 694q-74 -37 -172 -37q-16 0 -70 4zM563 -12l744 1427l88 -45l-742 -1429zM1130 246l25 102l537 572h116l-122 -572h122l-24 -102h-123l-55 -246h-115l57 246h-418zM1298 348h273l104 424z" />
<glyph unicode="&#xbd;" horiz-adv-x="1878" d="M309 1120l23 101q18 -2 47 -2q188 0 223 159h119l-213 -919h-119l162 694q-74 -37 -172 -37q-16 0 -70 4zM518 -12l744 1427l86 -45l-740 -1429zM1094 0l26 121q80 42 201 121q57 37 98 66t97.5 77t92 90.5t61.5 97t26 107.5q0 42 -15.5 71.5t-39.5 43.5t-43 19.5 t-37 6.5q-91 4 -142 -63t-51 -152q0 -13 4 -63l-129 26v25q0 67 16 121t43 88t58.5 58.5t68.5 36.5t67 17t58 5q112 0 190.5 -59t78.5 -175q0 -42 -10 -84t-25 -76t-41.5 -70.5t-47 -61.5t-55.5 -55.5t-53.5 -45.5t-54 -39t-43.5 -29t-35 -22q-111 -68 -188 -101l469 7 l-25 -109h-620z" />
<glyph unicode="&#xbe;" horiz-adv-x="1878" d="M147 733l129 17q1 -21 4 -42.5t16 -53t33 -55t58.5 -41.5t89.5 -19q57 -1 99.5 16.5t64.5 46t32 58.5t9 59q-1 33 -13 59t-27.5 42.5t-44.5 28t-48.5 17t-55 8.5t-49.5 3h-45h-16l23 100q36 -4 49 -4q178 0 243 82q31 40 31 92q1 30 -9.5 58t-46 51.5t-91.5 23.5 q-87 0 -137 -58.5t-50 -144.5l-133 25q21 92 47 137q85 139 281 139q50 -1 95 -14.5t83.5 -39.5t61.5 -71.5t24 -103.5q0 -92 -61.5 -152.5t-155.5 -72.5q65 -16 92 -37q82 -65 82 -176q-1 -69 -33.5 -123t-83.5 -84.5t-105.5 -45.5t-109.5 -16q-45 0 -86 7.5t-85 26 t-80.5 56.5t-57.5 91q-6 16 -11 35.5t-6.5 32.5t-3.5 27t-2 15zM653 -12l744 1427l88 -45l-742 -1429zM1130 246l25 102l537 572h116l-122 -572h122l-24 -102h-123l-55 -246h-115l57 246h-418zM1298 348h273l104 424z" />
<glyph unicode="&#xbf;" d="M90 377q0 178 123 289q86 75 176 96q22 7 92 16l72 305h160l-103 -440q-126 -6 -194 -37.5t-105 -93.5q-41 -73 -41 -143q1 -63 24.5 -109.5t49.5 -69.5q27 -26 73 -40.5t70 -16.5t43 -2q90 0 165 44t112 124q8 17 14 37.5t9.5 40.5t6 36t4 29.5t1.5 14.5l176 -29 q0 -2 -2 -19.5t-5 -37t-7 -37.5q-42 -163 -164 -254q-122 -92 -312 -92q-34 0 -72.5 3.5t-111 26.5t-123.5 64q-49 40 -80 94q-51 89 -51 201zM569 1217l52 229h190l-53 -229h-189z" />
<glyph unicode="&#xc0;" horiz-adv-x="1366" d="M0 0l838 1446h221l184 -1446h-186l-51 455h-549l-262 -455h-195zM543 604h446l-71 723zM770 1833h213l74 -256h-111z" />
<glyph unicode="&#xc1;" horiz-adv-x="1366" d="M0 0l838 1446h221l184 -1446h-186l-51 455h-549l-262 -455h-195zM543 604h446l-71 723zM856 1573l178 260h256l-297 -260h-137z" />
<glyph unicode="&#xc2;" horiz-adv-x="1366" d="M0 0l838 1446h221l184 -1446h-186l-51 455h-549l-262 -455h-195zM543 604h446l-71 723zM690 1571l264 262h148l117 -262h-138l-67 162l-160 -162h-164z" />
<glyph unicode="&#xc3;" horiz-adv-x="1366" d="M0 0l838 1446h221l184 -1446h-186l-51 455h-549l-262 -455h-195zM543 604h446l-71 723zM612 1614q10 23 29 53q10 19 25 38.5t42.5 47t68.5 45t87 17.5q21 0 45 -4.5t39.5 -9.5t44 -15t39.5 -14q94 -31 156 -31q68 0 117 76l55 -33q-45 -81 -87 -122q-76 -73 -169 -73 q-72 0 -174 41q-6 2 -27.5 10t-33.5 12t-31 9.5t-34.5 8t-29.5 1.5q-29 0 -51.5 -18t-48.5 -64z" />
<glyph unicode="&#xc4;" horiz-adv-x="1366" d="M0 0l838 1446h221l184 -1446h-186l-51 455h-549l-262 -455h-195zM543 604h446l-71 723zM657 1591l48 211h186l-47 -211h-187zM1053 1591l49 211h186l-49 -211h-186z" />
<glyph unicode="&#xc5;" horiz-adv-x="1366" d="M0 0l838 1446h221l184 -1446h-186l-51 455h-549l-262 -455h-195zM543 604h446l-71 723zM788 1755q0 78 54 131t131 53t130.5 -53.5t53.5 -130.5t-53.5 -130.5t-130.5 -53.5t-131 54t-54 130zM877 1753q0 -41 28.5 -69.5t69.5 -28.5q40 0 68 29t28 69q0 41 -28.5 68.5 t-69.5 27.5q-40 0 -68 -28t-28 -68z" />
<glyph unicode="&#xc6;" horiz-adv-x="2174" d="M-37 0l1329 1446h897l-35 -152h-708l-94 -477h710l-32 -143h-713l-119 -520h866l-34 -154h-1039l105 461h-492l-416 -461h-225zM735 604h395l162 656z" />
<glyph unicode="&#xc7;" horiz-adv-x="1579" d="M178 623q-2 171 50.5 324.5t150 271t249 187t335.5 69.5q82 0 156 -12.5t149.5 -43.5t135.5 -80t110 -127t77 -178l-182 -35q-29 100 -76 166q-66 89 -165.5 126.5t-204.5 37.5q-121 0 -222 -42.5t-168.5 -113t-114 -163.5t-66.5 -191t-19 -198q3 -228 119 -364.5 t348 -135.5q84 0 154 18t123 52t90.5 70t72.5 83q71 98 92 158l182 -25q-202 -478 -684 -502l-45 -63q1 0 11 -2.5t23 -6.5t24 -9q33 -18 54.5 -42.5t30 -49.5t11 -39t2.5 -27q0 -28 -8.5 -56.5t-28 -58t-48 -52.5t-73 -38t-98.5 -16q-31 0 -115 12l15 59q12 0 29.5 -1 t27.5 -1q41 0 63 8t39 29t17 47q0 87 -154 113l146 194q-58 6 -82 8.5t-68.5 11.5t-81.5 23q-61 23 -114.5 56.5t-103 86t-84.5 117.5t-57 153.5t-24 191.5z" />
<glyph unicode="&#xc8;" horiz-adv-x="1280" d="M115 0l334 1446h940l-35 -154h-758l-111 -477h695l-33 -143h-694l-121 -518h860l-35 -154h-1042zM727 1833h213l74 -256h-111z" />
<glyph unicode="&#xc9;" horiz-adv-x="1280" d="M115 0l334 1446h940l-35 -154h-758l-111 -477h695l-33 -143h-694l-121 -518h860l-35 -154h-1042zM813 1573l178 260h258l-299 -260h-137z" />
<glyph unicode="&#xca;" horiz-adv-x="1280" d="M115 0l334 1446h940l-35 -154h-758l-111 -477h695l-33 -143h-694l-121 -518h860l-35 -154h-1042zM649 1571l264 262h146l117 -262h-138l-67 162l-160 -162h-162z" />
<glyph unicode="&#xcb;" horiz-adv-x="1280" d="M115 0l334 1446h940l-35 -154h-758l-111 -477h695l-33 -143h-694l-121 -518h860l-35 -154h-1042zM643 1591l49 211h187l-48 -211h-188zM1040 1591l50 211h186l-49 -211h-187z" />
<glyph unicode="&#xcc;" horiz-adv-x="555" d="M117 0l334 1446h176l-334 -1446h-176zM365 1833h213l73 -256h-110z" />
<glyph unicode="&#xcd;" horiz-adv-x="555" d="M117 0l334 1446h176l-334 -1446h-176zM451 1573l178 260h256l-297 -260h-137z" />
<glyph unicode="&#xce;" horiz-adv-x="555" d="M117 0l334 1446h176l-334 -1446h-176zM287 1571l262 262h147l117 -262h-137l-68 162l-159 -162h-162z" />
<glyph unicode="&#xcf;" horiz-adv-x="555" d="M117 0l334 1446h176l-334 -1446h-176zM281 1591l49 211h186l-49 -211h-186zM678 1591l49 211h186l-49 -211h-186z" />
<glyph unicode="&#xd0;" horiz-adv-x="1492" d="M119 0l162 707h-162l33 137h161l140 602h397q70 0 116 -2.5t115.5 -12t129 -34.5t108.5 -64q46 -36 86 -94q98 -142 94 -365q-1 -80 -14.5 -166t-48.5 -185t-87 -185t-136.5 -162.5t-190.5 -120.5q-62 -26 -134.5 -38.5t-119.5 -14.5t-133 -2h-516zM334 147h313 q107 0 166 7.5t111 27.5q126 47 229 183.5t145 339.5q21 100 21 178q0 86 -17.5 153.5t-42 110.5t-67 73.5t-76 45.5t-86 22.5t-79 8.5t-72.5 1h-11h-270l-104 -454h378l-30 -137h-381z" />
<glyph unicode="&#xd1;" horiz-adv-x="1492" d="M117 0l334 1446h194l473 -1251l273 1251h172l-334 -1446h-187l-479 1255l-272 -1255h-174zM676 1614q2 4 12.5 24t16.5 29q90 148 225 148q20 0 43.5 -4.5t39 -9.5t43.5 -15t40 -14q97 -31 155 -31q68 0 117 76l55 -33q-8 -16 -17 -32t-33 -48.5t-50.5 -55t-68.5 -41 t-87 -18.5q-71 0 -174 41q-2 1 -26 10t-33.5 12.5t-29.5 9.5t-35.5 8t-30.5 1q-30 0 -52.5 -18.5t-46.5 -63.5z" />
<glyph unicode="&#xd2;" horiz-adv-x="1622" d="M197 631q0 164 51.5 318t152.5 274q76 88 177 149q174 103 399 103q97 0 181.5 -20t145 -53t101.5 -66t72 -70q73 -89 111 -213.5t36 -247.5q-1 -37 -4.5 -76t-17 -107t-35 -130.5t-63.5 -136.5t-97 -134q-93 -102 -198.5 -155.5t-188.5 -71.5q-92 -21 -186 -21 q-243 0 -404 127q-40 32 -76 74.5t-74 107t-60.5 155t-22.5 194.5zM391 629q0 -109 33 -203q48 -144 159.5 -226.5t262.5 -82.5q205 0 364 143q60 54 104 124t66 131t35.5 128t16 104.5t2.5 71.5q1 94 -18 172.5t-52.5 131.5t-69.5 88t-77 59q-103 61 -240 61 q-40 0 -82.5 -6.5t-103 -24.5t-123 -61t-113.5 -106q-53 -65 -89 -145t-50.5 -154t-19.5 -120.5t-5 -84.5zM899 1833h211l74 -256h-111z" />
<glyph unicode="&#xd3;" horiz-adv-x="1622" d="M197 631q0 164 51.5 318t152.5 274q76 88 177 149q174 103 399 103q97 0 181.5 -20t145 -53t101.5 -66t72 -70q73 -89 111 -213.5t36 -247.5q-1 -37 -4.5 -76t-17 -107t-35 -130.5t-63.5 -136.5t-97 -134q-93 -102 -198.5 -155.5t-188.5 -71.5q-92 -21 -186 -21 q-243 0 -404 127q-40 32 -76 74.5t-74 107t-60.5 155t-22.5 194.5zM391 629q0 -109 33 -203q48 -144 159.5 -226.5t262.5 -82.5q205 0 364 143q60 54 104 124t66 131t35.5 128t16 104.5t2.5 71.5q1 94 -18 172.5t-52.5 131.5t-69.5 88t-77 59q-103 61 -240 61 q-40 0 -82.5 -6.5t-103 -24.5t-123 -61t-113.5 -106q-53 -65 -89 -145t-50.5 -154t-19.5 -120.5t-5 -84.5zM985 1573l176 260h258l-299 -260h-135z" />
<glyph unicode="&#xd4;" horiz-adv-x="1622" d="M197 631q0 164 51.5 318t152.5 274q76 88 177 149q174 103 399 103q97 0 181.5 -20t145 -53t101.5 -66t72 -70q73 -89 111 -213.5t36 -247.5q-1 -37 -4.5 -76t-17 -107t-35 -130.5t-63.5 -136.5t-97 -134q-93 -102 -198.5 -155.5t-188.5 -71.5q-92 -21 -186 -21 q-243 0 -404 127q-40 32 -76 74.5t-74 107t-60.5 155t-22.5 194.5zM391 629q0 -109 33 -203q48 -144 159.5 -226.5t262.5 -82.5q205 0 364 143q60 54 104 124t66 131t35.5 128t16 104.5t2.5 71.5q1 94 -18 172.5t-52.5 131.5t-69.5 88t-77 59q-103 61 -240 61 q-40 0 -82.5 -6.5t-103 -24.5t-123 -61t-113.5 -106q-53 -65 -89 -145t-50.5 -154t-19.5 -120.5t-5 -84.5zM819 1571l264 262h148l115 -262h-136l-69 162l-160 -162h-162z" />
<glyph unicode="&#xd5;" horiz-adv-x="1622" d="M197 631q0 164 51.5 318t152.5 274q76 88 177 149q174 103 399 103q97 0 181.5 -20t145 -53t101.5 -66t72 -70q73 -89 111 -213.5t36 -247.5q-1 -37 -4.5 -76t-17 -107t-35 -130.5t-63.5 -136.5t-97 -134q-93 -102 -198.5 -155.5t-188.5 -71.5q-92 -21 -186 -21 q-243 0 -404 127q-40 32 -76 74.5t-74 107t-60.5 155t-22.5 194.5zM391 629q0 -109 33 -203q48 -144 159.5 -226.5t262.5 -82.5q205 0 364 143q60 54 104 124t66 131t35.5 128t16 104.5t2.5 71.5q1 94 -18 172.5t-52.5 131.5t-69.5 88t-77 59q-103 61 -240 61 q-40 0 -82.5 -6.5t-103 -24.5t-123 -61t-113.5 -106q-53 -65 -89 -145t-50.5 -154t-19.5 -120.5t-5 -84.5zM741 1614q10 23 29 53q10 19 24.5 38t42 47t68.5 45.5t88 17.5q20 0 43.5 -4.5t39 -9.5t43.5 -15t40 -14q97 -31 156 -31q68 0 117 76l57 -33q-53 -96 -111 -142 q-68 -53 -147 -53q-71 0 -174 41q-4 2 -22 8.5t-26.5 10t-26 9t-29 8t-26 4t-26.5 1.5q-29 0 -50.5 -18t-47.5 -64z" />
<glyph unicode="&#xd6;" horiz-adv-x="1622" d="M197 631q0 164 51.5 318t152.5 274q76 88 177 149q174 103 399 103q97 0 181.5 -20t145 -53t101.5 -66t72 -70q73 -89 111 -213.5t36 -247.5q-1 -37 -4.5 -76t-17 -107t-35 -130.5t-63.5 -136.5t-97 -134q-93 -102 -198.5 -155.5t-188.5 -71.5q-92 -21 -186 -21 q-243 0 -404 127q-40 32 -76 74.5t-74 107t-60.5 155t-22.5 194.5zM391 629q0 -109 33 -203q48 -144 159.5 -226.5t262.5 -82.5q205 0 364 143q60 54 104 124t66 131t35.5 128t16 104.5t2.5 71.5q1 94 -18 172.5t-52.5 131.5t-69.5 88t-77 59q-103 61 -240 61 q-40 0 -82.5 -6.5t-103 -24.5t-123 -61t-113.5 -106q-53 -65 -89 -145t-50.5 -154t-19.5 -120.5t-5 -84.5zM733 1591l49 211h187l-49 -211h-187zM1130 1591l48 211h186l-47 -211h-187z" />
<glyph unicode="&#xd7;" horiz-adv-x="1482" d="M276 285l414 336l-291 360l140 115l290 -363l418 340l96 -121l-417 -340l293 -364l-142 -115l-291 365l-411 -334z" />
<glyph unicode="&#xd8;" horiz-adv-x="1622" d="M193 627q0 40 4 85t16 116.5t42.5 150.5t74.5 149q60 92 139 160q208 187 518 187q216 0 389 -123l109 125l98 -91l-110 -124q147 -178 147 -443q0 -258 -123 -471q-21 -36 -41.5 -65.5t-59 -74t-93.5 -86t-121 -73.5q-150 -76 -336 -76q-191 0 -338 78q-19 9 -78 47 l-117 -129l-100 84l123 137q-26 26 -49 64q-37 58 -65.5 153.5t-28.5 219.5zM377 614q0 -71 13.5 -133.5t26 -91t34.5 -70.5l813 910q-24 21 -54 41q-101 65 -235 65q-145 0 -264 -69q-55 -32 -97 -72q-59 -54 -110 -129q-60 -91 -93.5 -214t-33.5 -237zM535 215 q46 -34 55 -39q104 -59 244 -59q40 0 84 5.5t119.5 31.5t136.5 71q126 94 193 251.5t67 324.5q0 117 -21.5 188.5t-60.5 138.5z" />
<glyph unicode="&#xd9;" horiz-adv-x="1449" d="M219 399q0 117 47 318l168 729h180l-174 -748q-6 -25 -12.5 -70t-9.5 -59q-15 -96 -15 -137q0 -92 25 -151q28 -63 99.5 -108.5t191.5 -45.5q134 0 225 53q39 26 66 53q58 60 95.5 152t76.5 266l182 795h180l-201 -868q0 -2 -5.5 -23t-10.5 -43t-14.5 -55t-19.5 -63.5 t-23.5 -64.5t-26.5 -61q-120 -235 -389 -282q-74 -13 -145 -13q-94 0 -172.5 20t-131.5 54t-87.5 70.5t-55.5 77.5q-43 88 -43 204zM813 1833h213l74 -256h-111z" />
<glyph unicode="&#xda;" horiz-adv-x="1449" d="M219 399q0 117 47 318l168 729h180l-174 -748q-6 -25 -12.5 -70t-9.5 -59q-15 -96 -15 -137q0 -92 25 -151q28 -63 99.5 -108.5t191.5 -45.5q134 0 225 53q39 26 66 53q58 60 95.5 152t76.5 266l182 795h180l-201 -868q0 -2 -5.5 -23t-10.5 -43t-14.5 -55t-19.5 -63.5 t-23.5 -64.5t-26.5 -61q-120 -235 -389 -282q-74 -13 -145 -13q-94 0 -172.5 20t-131.5 54t-87.5 70.5t-55.5 77.5q-43 88 -43 204zM899 1573l178 260h256l-299 -260h-135z" />
<glyph unicode="&#xdb;" horiz-adv-x="1449" d="M219 399q0 117 47 318l168 729h180l-174 -748q-6 -25 -12.5 -70t-9.5 -59q-15 -96 -15 -137q0 -92 25 -151q28 -63 99.5 -108.5t191.5 -45.5q134 0 225 53q39 26 66 53q58 60 95.5 152t76.5 266l182 795h180l-201 -868q0 -2 -5.5 -23t-10.5 -43t-14.5 -55t-19.5 -63.5 t-23.5 -64.5t-26.5 -61q-120 -235 -389 -282q-74 -13 -145 -13q-94 0 -172.5 20t-131.5 54t-87.5 70.5t-55.5 77.5q-43 88 -43 204zM733 1571l264 262h148l117 -262h-138l-67 162l-160 -162h-164z" />
<glyph unicode="&#xdc;" horiz-adv-x="1449" d="M219 399q0 117 47 318l168 729h180l-174 -748q-6 -25 -12.5 -70t-9.5 -59q-15 -96 -15 -137q0 -92 25 -151q28 -63 99.5 -108.5t191.5 -45.5q134 0 225 53q39 26 66 53q58 60 95.5 152t76.5 266l182 795h180l-201 -868q0 -2 -5.5 -23t-10.5 -43t-14.5 -55t-19.5 -63.5 t-23.5 -64.5t-26.5 -61q-120 -235 -389 -282q-74 -13 -145 -13q-94 0 -172.5 20t-131.5 54t-87.5 70.5t-55.5 77.5q-43 88 -43 204zM715 1591l49 211h186l-49 -211h-186zM1110 1591l49 211h187l-50 -211h-186z" />
<glyph unicode="&#xdd;" horiz-adv-x="1193" d="M289 1446h182l195 -653l565 653h217l-735 -817l-144 -629h-182l150 649zM770 1573l178 260h258l-299 -260h-137z" />
<glyph unicode="&#xde;" horiz-adv-x="1323" d="M115 0l334 1446h180l-62 -264h404q79 0 157 -23q48 -14 89.5 -37.5t80.5 -63t61.5 -102.5t22.5 -143q0 -262 -225 -383q-79 -41 -149 -57q-92 -21 -236 -21h-397l-80 -352h-180zM410 502h364q138 0 222 27.5t141 95.5q65 78 65 184q0 158 -141 205q-41 14 -105 14h-424z " />
<glyph unicode="&#xdf;" d="M92 0l232 1010q22 97 38 143q45 130 106.5 192t143.5 91q79 28 170 28q70 0 132 -17.5t112.5 -52t79.5 -92.5t29 -133q0 -87 -33 -157q-55 -114 -172 -152q-55 -19 -142 -22q2 -1 23 -5.5t46.5 -12t45.5 -17.5q150 -73 150 -287q0 -28 -3 -62.5t-18.5 -100.5 t-41.5 -122.5t-79 -114t-125 -89.5q-104 -45 -270 -45q-86 0 -168 18l35 145q18 -3 48 -9.5t52 -9.5t49 -3q129 0 205 46t117 163q35 105 35 190q0 82 -37 140q-33 51 -91 72t-171 26l35 151q190 -10 280 84q30 30 46 74.5t16 89.5q0 43 -17 80q-17 36 -59 64t-111 28 q-23 0 -50 -4.5t-71.5 -25t-74.5 -54.5q-70 -78 -127 -336l-211 -911h-154z" />
<glyph unicode="&#xe0;" horiz-adv-x="1024" d="M74 219q0 68 37 139q38 74 104.5 113.5t161.5 60.5q62 13 196.5 31t202.5 33q21 97 21 127q0 60 -44 98.5t-143 38.5q-81 0 -131 -26q-82 -44 -104 -168l-182 16q16 46 31.5 78.5t50 78t77.5 74t114 49.5t159 21q142 0 233 -59q47 -28 74 -68q31 -44 31 -113 q0 -43 -19 -129l-88 -378q-8 -36 -8 -60q0 -35 24 -45q12 -4 27 -4q25 0 64 14l-31 -133q-57 -14 -96 -14q-36 0 -60 8q-14 4 -28.5 12.5t-31.5 31t-22 52.5q-2 16 2 43q-23 -37 -41 -55q-106 -106 -295 -106q-65 0 -116 16t-82 40.5t-51.5 57t-28.5 63.5t-8 62zM252 233 q0 -52 39 -92.5t125 -40.5q48 0 109.5 20.5t97.5 49.5q11 9 21.5 19.5t18 20.5t15 22t12 21t9.5 22t7.5 20.5t5.5 19.5t4 16.5t3 14.5l2 10l27 115q-113 -13 -207 -29q-141 -22 -213 -73q-76 -53 -76 -136zM500 1399h209l94 -312h-109z" />
<glyph unicode="&#xe1;" horiz-adv-x="1024" d="M74 219q0 68 37 139q38 74 104.5 113.5t161.5 60.5q62 13 196.5 31t202.5 33q21 97 21 127q0 60 -44 98.5t-143 38.5q-81 0 -131 -26q-82 -44 -104 -168l-182 16q16 46 31.5 78.5t50 78t77.5 74t114 49.5t159 21q142 0 233 -59q47 -28 74 -68q31 -44 31 -113 q0 -43 -19 -129l-88 -378q-8 -36 -8 -60q0 -35 24 -45q12 -4 27 -4q25 0 64 14l-31 -133q-57 -14 -96 -14q-36 0 -60 8q-14 4 -28.5 12.5t-31.5 31t-22 52.5q-2 16 2 43q-23 -37 -41 -55q-106 -106 -295 -106q-65 0 -116 16t-82 40.5t-51.5 57t-28.5 63.5t-8 62zM252 233 q0 -52 39 -92.5t125 -40.5q48 0 109.5 20.5t97.5 49.5q11 9 21.5 19.5t18 20.5t15 22t12 21t9.5 22t7.5 20.5t5.5 19.5t4 16.5t3 14.5l2 10l27 115q-113 -13 -207 -29q-141 -22 -213 -73q-76 -53 -76 -136zM567 1092l178 307h240l-293 -307h-125z" />
<glyph unicode="&#xe2;" horiz-adv-x="1024" d="M74 219q0 68 37 139q38 74 104.5 113.5t161.5 60.5q62 13 196.5 31t202.5 33q21 97 21 127q0 60 -44 98.5t-143 38.5q-81 0 -131 -26q-82 -44 -104 -168l-182 16q16 46 31.5 78.5t50 78t77.5 74t114 49.5t159 21q142 0 233 -59q47 -28 74 -68q31 -44 31 -113 q0 -43 -19 -129l-88 -378q-8 -36 -8 -60q0 -35 24 -45q12 -4 27 -4q25 0 64 14l-31 -133q-57 -14 -96 -14q-36 0 -60 8q-14 4 -28.5 12.5t-31.5 31t-22 52.5q-2 16 2 43q-23 -37 -41 -55q-106 -106 -295 -106q-65 0 -116 16t-82 40.5t-51.5 57t-28.5 63.5t-8 62zM252 233 q0 -52 39 -92.5t125 -40.5q48 0 109.5 20.5t97.5 49.5q11 9 21.5 19.5t18 20.5t15 22t12 21t9.5 22t7.5 20.5t5.5 19.5t4 16.5t3 14.5l2 10l27 115q-113 -13 -207 -29q-141 -22 -213 -73q-76 -53 -76 -136zM373 1083l317 316h150l139 -316h-139l-92 217l-207 -217h-168z" />
<glyph unicode="&#xe3;" horiz-adv-x="1024" d="M74 219q0 68 37 139q38 74 104.5 113.5t161.5 60.5q62 13 196.5 31t202.5 33q21 97 21 127q0 60 -44 98.5t-143 38.5q-81 0 -131 -26q-82 -44 -104 -168l-182 16q16 46 31.5 78.5t50 78t77.5 74t114 49.5t159 21q142 0 233 -59q47 -28 74 -68q31 -44 31 -113 q0 -43 -19 -129l-88 -378q-8 -36 -8 -60q0 -35 24 -45q12 -4 27 -4q25 0 64 14l-31 -133q-57 -14 -96 -14q-36 0 -60 8q-14 4 -28.5 12.5t-31.5 31t-22 52.5q-2 16 2 43q-23 -37 -41 -55q-106 -106 -295 -106q-65 0 -116 16t-82 40.5t-51.5 57t-28.5 63.5t-8 62zM252 233 q0 -52 39 -92.5t125 -40.5q48 0 109.5 20.5t97.5 49.5q11 9 21.5 19.5t18 20.5t15 22t12 21t9.5 22t7.5 20.5t5.5 19.5t4 16.5t3 14.5l2 10l27 115q-113 -13 -207 -29q-141 -22 -213 -73q-76 -53 -76 -136zM385 1178q15 30 33 57q77 121 188 121q26 0 51.5 -8t56.5 -21.5 t50 -19.5l55 -19q34 -10 58 -10q21 0 41 10q19 8 32 19t18.5 19t18.5 30l53 -33q-48 -89 -102 -133q-27 -24 -53 -35q-32 -12 -64 -12q-56 0 -186 53q-8 3 -28.5 12t-35 13t-30.5 4q-31 0 -53 -16.5t-44 -47.5z" />
<glyph unicode="&#xe4;" horiz-adv-x="1024" d="M74 219q0 68 37 139q38 74 104.5 113.5t161.5 60.5q62 13 196.5 31t202.5 33q21 97 21 127q0 60 -44 98.5t-143 38.5q-81 0 -131 -26q-82 -44 -104 -168l-182 16q16 46 31.5 78.5t50 78t77.5 74t114 49.5t159 21q142 0 233 -59q47 -28 74 -68q31 -44 31 -113 q0 -43 -19 -129l-88 -378q-8 -36 -8 -60q0 -35 24 -45q12 -4 27 -4q25 0 64 14l-31 -133q-57 -14 -96 -14q-36 0 -60 8q-14 4 -28.5 12.5t-31.5 31t-22 52.5q-2 16 2 43q-23 -37 -41 -55q-106 -106 -295 -106q-65 0 -116 16t-82 40.5t-51.5 57t-28.5 63.5t-8 62zM252 233 q0 -52 39 -92.5t125 -40.5q48 0 109.5 20.5t97.5 49.5q11 9 21.5 19.5t18 20.5t15 22t12 21t9.5 22t7.5 20.5t5.5 19.5t4 16.5t3 14.5l2 10l27 115q-113 -13 -207 -29q-141 -22 -213 -73q-76 -53 -76 -136zM377 1130l49 207h186l-47 -207h-188zM776 1130l47 207h187 l-49 -207h-185z" />
<glyph unicode="&#xe5;" horiz-adv-x="1024" d="M74 219q0 68 37 139q38 74 104.5 113.5t161.5 60.5q62 13 196.5 31t202.5 33q21 97 21 127q0 60 -44 98.5t-143 38.5q-81 0 -131 -26q-82 -44 -104 -168l-182 16q16 46 31.5 78.5t50 78t77.5 74t114 49.5t159 21q142 0 233 -59q47 -28 74 -68q31 -44 31 -113 q0 -43 -19 -129l-88 -378q-8 -36 -8 -60q0 -35 24 -45q12 -4 27 -4q25 0 64 14l-31 -133q-57 -14 -96 -14q-36 0 -60 8q-14 4 -28.5 12.5t-31.5 31t-22 52.5q-2 16 2 43q-23 -37 -41 -55q-106 -106 -295 -106q-65 0 -116 16t-82 40.5t-51.5 57t-28.5 63.5t-8 62zM252 233 q0 -52 39 -92.5t125 -40.5q48 0 109.5 20.5t97.5 49.5q11 9 21.5 19.5t18 20.5t15 22t12 21t9.5 22t7.5 20.5t5.5 19.5t4 16.5t3 14.5l2 10l27 115q-113 -13 -207 -29q-141 -22 -213 -73q-76 -53 -76 -136zM506 1249q0 77 54 131t130 54q75 0 129.5 -54.5t54.5 -130.5 t-54.5 -130t-131.5 -54q-75 0 -128.5 54t-53.5 130zM594 1245q0 -40 28.5 -68t69.5 -28q40 0 68 29t28 69q0 41 -28.5 68.5t-69.5 27.5q-40 0 -68 -28.5t-28 -69.5z" />
<glyph unicode="&#xe6;" horiz-adv-x="1705" d="M70 223q0 32 8 64.5t27.5 72.5t61.5 76.5t101 61.5q35 15 83 28t108.5 23.5t102 16.5t109 14.5t85.5 11.5q16 99 16 125q0 111 -94 139q-30 12 -76 12q-49 -2 -90 -16q-36 -13 -62.5 -34t-41.5 -48t-21 -42.5t-12 -38.5q-1 -5 -2 -7l-178 27q35 78 63 116q20 27 46.5 52 t68 52t101 43.5t128.5 16.5q93 0 160 -30t102 -68q24 -28 47 -72q25 32 54 58q46 42 124.5 77t184.5 35q98 0 174 -33q211 -93 211 -374q0 -41 -8 -119h-744q-4 -46 -4 -68q0 -178 133 -258q66 -39 154 -39q27 0 56 4t78 26t83 60q23 26 63 107l158 -21q-34 -84 -78 -141 q-51 -61 -143.5 -109.5t-226.5 -48.5q-219 0 -342 125q-27 29 -64 84q-11 -15 -37 -45q-145 -164 -370 -164q-61 0 -125 21q-24 9 -47 21.5t-54.5 38.5t-51 69.5t-19.5 97.5zM244 240q0 -38 22 -76q45 -72 158 -72q66 0 127 35.5t98 93.5q57 84 88 256q-24 -4 -70 -11 t-63 -10t-49 -8.5t-47 -9t-37.5 -9t-40 -11t-35.5 -12.5q-60 -22 -89.5 -44t-47.5 -55q-16 -32 -14 -67zM930 580h571q0 2 1 19t0.5 35t-3.5 36q-9 61 -38.5 103t-68 60t-68.5 24.5t-58 6.5q-108 0 -197 -67q-75 -55 -121 -160q-8 -16 -18 -57z" />
<glyph unicode="&#xe7;" horiz-adv-x="1042" d="M127 383q0 153 59 285q24 53 60.5 104t94 102.5t142 83t183.5 31.5q91 0 164 -26t117 -69.5t68 -93.5t27 -104l-151 -34q-6 32 -18.5 60.5t-37.5 61.5t-70 53t-106 21q-93 0 -163 -48.5t-111 -109.5q-36 -49 -64.5 -132t-27.5 -179q0 -53 14 -102.5t42.5 -93.5t78.5 -71 t115 -28q137 0 227 107q10 12 20 27.5t17 29.5t12 26t9 20l3 9l168 -20q-13 -36 -34.5 -73.5t-59.5 -82.5t-84 -79t-112.5 -57.5t-141.5 -23.5l-47 -63q125 -20 121 -131q-2 -56 -41 -100q-41 -48 -90.5 -62t-114.5 -14q-26 0 -55 4l12 55h27q46 0 72 16.5t26 47.5 q0 62 -106 75l125 175l-29 2q-86 6 -153.5 41t-108 91t-60.5 124.5t-18 144.5z" />
<glyph unicode="&#xe8;" horiz-adv-x="1067" d="M127 387q0 40 6 86t24 115.5t61 142t106 129.5q139 129 335 129q170 0 267 -100q98 -107 98 -295q0 -63 -12 -129h-723q-13 -122 17 -199q28 -73 91 -116q71 -50 160 -50q61 2 119.5 28t97.5 71q30 36 57 98l154 -27q-17 -42 -39 -77q-23 -36 -55 -69t-82.5 -69 t-124.5 -58t-160 -22q-70 0 -141 21q-129 41 -192.5 145.5t-63.5 245.5zM319 584h545q7 89 -20 153q-16 40 -43 67.5t-57.5 39t-53 16t-41.5 4.5q-50 0 -90 -16q-104 -36 -174 -131q-26 -32 -43 -70q-8 -18 -23 -63zM522 1399h207l94 -312h-108z" />
<glyph unicode="&#xe9;" horiz-adv-x="1067" d="M127 387q0 40 6 86t24 115.5t61 142t106 129.5q139 129 335 129q170 0 267 -100q98 -107 98 -295q0 -63 -12 -129h-723q-13 -122 17 -199q28 -73 91 -116q71 -50 160 -50q61 2 119.5 28t97.5 71q30 36 57 98l154 -27q-17 -42 -39 -77q-23 -36 -55 -69t-82.5 -69 t-124.5 -58t-160 -22q-70 0 -141 21q-129 41 -192.5 145.5t-63.5 245.5zM319 584h545q7 89 -20 153q-16 40 -43 67.5t-57.5 39t-53 16t-41.5 4.5q-50 0 -90 -16q-104 -36 -174 -131q-26 -32 -43 -70q-8 -18 -23 -63zM590 1092l176 307h242l-295 -307h-123z" />
<glyph unicode="&#xea;" horiz-adv-x="1067" d="M127 387q0 40 6 86t24 115.5t61 142t106 129.5q139 129 335 129q170 0 267 -100q98 -107 98 -295q0 -63 -12 -129h-723q-13 -122 17 -199q28 -73 91 -116q71 -50 160 -50q61 2 119.5 28t97.5 71q30 36 57 98l154 -27q-17 -42 -39 -77q-23 -36 -55 -69t-82.5 -69 t-124.5 -58t-160 -22q-70 0 -141 21q-129 41 -192.5 145.5t-63.5 245.5zM319 584h545q7 89 -20 153q-16 40 -43 67.5t-57.5 39t-53 16t-41.5 4.5q-50 0 -90 -16q-104 -36 -174 -131q-26 -32 -43 -70q-8 -18 -23 -63zM395 1083l318 316h147l139 -316h-137l-94 217l-205 -217 h-168z" />
<glyph unicode="&#xeb;" horiz-adv-x="1067" d="M127 387q0 40 6 86t24 115.5t61 142t106 129.5q139 129 335 129q170 0 267 -100q98 -107 98 -295q0 -63 -12 -129h-723q-13 -122 17 -199q28 -73 91 -116q71 -50 160 -50q61 2 119.5 28t97.5 71q30 36 57 98l154 -27q-17 -42 -39 -77q-23 -36 -55 -69t-82.5 -69 t-124.5 -58t-160 -22q-70 0 -141 21q-129 41 -192.5 145.5t-63.5 245.5zM319 584h545q7 89 -20 153q-16 40 -43 67.5t-57.5 39t-53 16t-41.5 4.5q-50 0 -90 -16q-104 -36 -174 -131q-26 -32 -43 -70q-8 -18 -23 -63zM438 1130l47 207h189l-49 -207h-187zM836 1130l49 207 h184l-47 -207h-186z" />
<glyph unicode="&#xec;" horiz-adv-x="468" d="M86 0l221 965h160l-223 -965h-158zM213 1399h207l94 -312h-108z" />
<glyph unicode="&#xed;" horiz-adv-x="468" d="M86 0l221 965h160l-223 -965h-158zM311 1092l178 307h240l-293 -307h-125z" />
<glyph unicode="&#xee;" horiz-adv-x="468" d="M86 0l221 965h160l-223 -965h-158zM96 1083l318 316h147l139 -316h-137l-94 217l-205 -217h-168z" />
<glyph unicode="&#xef;" horiz-adv-x="468" d="M86 0l221 965h160l-223 -965h-158zM139 1130l49 207h187l-47 -207h-189zM537 1130l49 207h186l-49 -207h-186z" />
<glyph unicode="&#xf0;" d="M125 403q-1 86 23.5 171t72 159.5t111.5 132t150 90.5t180 33q98 0 156.5 -35.5t105.5 -101.5q-27 153 -111 311l-338 -92l-31 90l316 88q-98 127 -131 164l112 64q20 -24 34.5 -41.5t27 -33.5t19 -24.5t16 -22.5t13.5 -19.5t16 -24t18 -27.5l178 49l35 -92l-162 -43 q141 -247 141 -557q0 -158 -33.5 -262.5t-97.5 -190.5q-62 -86 -135 -133q-117 -78 -274 -80q-192 -1 -302 119.5t-110 308.5zM291 379q1 -76 22 -132t56 -87.5t74.5 -46t84.5 -15.5q88 -2 164 45q58 35 102 91t66.5 118t33.5 119t11 109q0 66 -12 110q-18 65 -73 119.5 t-150 54.5q-83 0 -162 -43q-61 -35 -106 -90.5t-68 -118.5t-33.5 -121t-9.5 -112z" />
<glyph unicode="&#xf1;" d="M84 0l223 965h162l-31 -140q20 21 32.5 33t48 40.5t68 45t82 31t99.5 14.5q49 0 104 -18q18 -6 36.5 -15t44 -28t44.5 -42.5t33 -61t14 -81.5q0 -58 -22 -161l-135 -582h-160l137 596q15 63 15 111q0 74 -45.5 113.5t-120.5 39.5q-93 0 -155.5 -38t-96.5 -83 q-33 -41 -56.5 -100t-48.5 -164l-110 -475h-162zM428 1178q6 12 31 57q77 121 190 121q21 0 44 -5.5t35 -9.5t41.5 -17.5t37.5 -16.5q6 -2 25 -9t30 -10q34 -10 58 -10q21 0 41 10q11 5 19.5 9.5t15.5 12.5l10.5 12t12 16.5t11.5 17.5l51 -33q-49 -92 -100 -133 q-27 -24 -53 -35q-32 -12 -64 -12q-56 0 -186 53q-8 3 -28.5 12t-35 13t-30.5 4q-31 0 -53 -16.5t-44 -47.5z" />
<glyph unicode="&#xf2;" d="M127 399q0 27 3.5 61.5t14 87t34.5 111t59 107.5q56 78 145 139q130 84 285 84q86 0 161 -31q32 -13 61 -31t62 -49.5t57 -71t41 -99t19 -129.5q6 -224 -129 -402q-154 -201 -408 -201q-84 0 -157 27q-42 16 -80.5 43t-78.5 72.5t-64.5 118.5t-24.5 163zM291 387 q0 -176 104 -246q63 -43 137 -43q28 0 63.5 7.5t86.5 34.5t90 69q67 73 101.5 178t31.5 209q0 68 -20 119q-26 70 -83.5 109.5t-131.5 39.5q-73 0 -144 -35q-78 -37 -133 -111.5t-78.5 -158t-23.5 -172.5zM543 1399h209l92 -312h-107z" />
<glyph unicode="&#xf3;" d="M127 399q0 27 3.5 61.5t14 87t34.5 111t59 107.5q56 78 145 139q130 84 285 84q86 0 161 -31q32 -13 61 -31t62 -49.5t57 -71t41 -99t19 -129.5q6 -224 -129 -402q-154 -201 -408 -201q-84 0 -157 27q-42 16 -80.5 43t-78.5 72.5t-64.5 118.5t-24.5 163zM291 387 q0 -176 104 -246q63 -43 137 -43q28 0 63.5 7.5t86.5 34.5t90 69q67 73 101.5 178t31.5 209q0 68 -20 119q-26 70 -83.5 109.5t-131.5 39.5q-73 0 -144 -35q-78 -37 -133 -111.5t-78.5 -158t-23.5 -172.5zM610 1092l178 307h240l-293 -307h-125z" />
<glyph unicode="&#xf4;" d="M127 399q0 27 3.5 61.5t14 87t34.5 111t59 107.5q56 78 145 139q130 84 285 84q86 0 161 -31q32 -13 61 -31t62 -49.5t57 -71t41 -99t19 -129.5q6 -224 -129 -402q-154 -201 -408 -201q-84 0 -157 27q-42 16 -80.5 43t-78.5 72.5t-64.5 118.5t-24.5 163zM291 387 q0 -176 104 -246q63 -43 137 -43q28 0 63.5 7.5t86.5 34.5t90 69q67 73 101.5 178t31.5 209q0 68 -20 119q-26 70 -83.5 109.5t-131.5 39.5q-73 0 -144 -35q-78 -37 -133 -111.5t-78.5 -158t-23.5 -172.5zM416 1083l317 316h148l139 -316h-137l-92 217l-207 -217h-168z" />
<glyph unicode="&#xf5;" d="M127 399q0 27 3.5 61.5t14 87t34.5 111t59 107.5q56 78 145 139q130 84 285 84q86 0 161 -31q32 -13 61 -31t62 -49.5t57 -71t41 -99t19 -129.5q6 -224 -129 -402q-154 -201 -408 -201q-84 0 -157 27q-42 16 -80.5 43t-78.5 72.5t-64.5 118.5t-24.5 163zM291 387 q0 -176 104 -246q63 -43 137 -43q28 0 63.5 7.5t86.5 34.5t90 69q67 73 101.5 178t31.5 209q0 68 -20 119q-26 70 -83.5 109.5t-131.5 39.5q-73 0 -144 -35q-78 -37 -133 -111.5t-78.5 -158t-23.5 -172.5zM428 1178q6 12 31 57q77 121 190 121q21 0 44 -5.5t35 -9.5 t41.5 -17.5t37.5 -16.5q6 -2 25 -9t30 -10q34 -10 58 -10q21 0 41 10q11 5 19.5 9.5t15.5 12.5l10.5 12t12 16.5t11.5 17.5l51 -33q-49 -92 -100 -133q-27 -24 -53 -35q-32 -12 -64 -12q-56 0 -186 53q-8 3 -28.5 12t-35 13t-30.5 4q-31 0 -53 -16.5t-44 -47.5z" />
<glyph unicode="&#xf6;" d="M127 399q0 27 3.5 61.5t14 87t34.5 111t59 107.5q56 78 145 139q130 84 285 84q86 0 161 -31q32 -13 61 -31t62 -49.5t57 -71t41 -99t19 -129.5q6 -224 -129 -402q-154 -201 -408 -201q-84 0 -157 27q-42 16 -80.5 43t-78.5 72.5t-64.5 118.5t-24.5 163zM291 387 q0 -176 104 -246q63 -43 137 -43q28 0 63.5 7.5t86.5 34.5t90 69q67 73 101.5 178t31.5 209q0 68 -20 119q-26 70 -83.5 109.5t-131.5 39.5q-73 0 -144 -35q-78 -37 -133 -111.5t-78.5 -158t-23.5 -172.5zM416 1130l47 207h188l-49 -207h-186zM813 1130l47 207h187l-50 -207 h-184z" />
<glyph unicode="&#xf7;" horiz-adv-x="1482" d="M219 535l39 163h1157l-37 -163h-1159zM623 184l47 207h209l-48 -207h-208zM772 836l47 206h207l-47 -206h-207z" />
<glyph unicode="&#xf8;" d="M70 59l112 111q-4 7 -20 39q-35 85 -35 190q0 28 4.5 65t16 92.5t39.5 117t67 112.5q49 63 110.5 107t121 63t102.5 26t80 7q130 0 252 -82l90 90l71 -69l-92 -94q29 -43 43 -74q37 -92 37 -199q0 -70 -14 -131q-6 -29 -17.5 -64t-34 -85t-62.5 -102.5t-91 -94.5 q-130 -109 -315 -109q-76 0 -138 20t-91 40t-64 53l-103 -98zM283 393q0 -37 12 -108l528 528q-22 15 -35.5 23t-47.5 18t-74 10q-152 0 -260 -127q-50 -59 -79.5 -135.5t-36.5 -123.5t-7 -85zM338 186q10 -15 37 -36q81 -56 164 -54q86 0 172 56q98 67 151 188t53 248 q0 75 -32 145z" />
<glyph unicode="&#xf9;" d="M152 209q0 35 30 182l131 574h162l-133 -574q-20 -87 -20 -141q0 -39 12 -64q15 -28 57 -49.5t103 -21.5q141 0 233 96q16 17 29.5 37t23.5 36.5t20 41.5t15.5 39.5t13.5 44.5t11 42t10.5 46t9.5 43l98 424h154l-223 -965h-154l35 152q-42 -49 -53 -58 q-59 -53 -138.5 -82.5t-160.5 -29.5q-66 0 -117 18q-47 16 -79 44.5t-46 60.5t-19 56.5t-5 47.5zM522 1399h207l94 -312h-108z" />
<glyph unicode="&#xfa;" d="M152 209q0 35 30 182l131 574h162l-133 -574q-20 -87 -20 -141q0 -39 12 -64q15 -28 57 -49.5t103 -21.5q141 0 233 96q16 17 29.5 37t23.5 36.5t20 41.5t15.5 39.5t13.5 44.5t11 42t10.5 46t9.5 43l98 424h154l-223 -965h-154l35 152q-42 -49 -53 -58 q-59 -53 -138.5 -82.5t-160.5 -29.5q-66 0 -117 18q-47 16 -79 44.5t-46 60.5t-19 56.5t-5 47.5zM610 1092l178 307h240l-293 -307h-125z" />
<glyph unicode="&#xfb;" d="M152 209q0 35 30 182l131 574h162l-133 -574q-20 -87 -20 -141q0 -39 12 -64q15 -28 57 -49.5t103 -21.5q141 0 233 96q16 17 29.5 37t23.5 36.5t20 41.5t15.5 39.5t13.5 44.5t11 42t10.5 46t9.5 43l98 424h154l-223 -965h-154l35 152q-42 -49 -53 -58 q-59 -53 -138.5 -82.5t-160.5 -29.5q-66 0 -117 18q-47 16 -79 44.5t-46 60.5t-19 56.5t-5 47.5zM416 1083l317 316h148l139 -316h-137l-92 217l-207 -217h-168z" />
<glyph unicode="&#xfc;" d="M152 209q0 35 30 182l131 574h162l-133 -574q-20 -87 -20 -141q0 -39 12 -64q15 -28 57 -49.5t103 -21.5q141 0 233 96q16 17 29.5 37t23.5 36.5t20 41.5t15.5 39.5t13.5 44.5t11 42t10.5 46t9.5 43l98 424h154l-223 -965h-154l35 152q-42 -49 -53 -58 q-59 -53 -138.5 -82.5t-160.5 -29.5q-66 0 -117 18q-47 16 -79 44.5t-46 60.5t-19 56.5t-5 47.5zM461 1130l49 207h186l-47 -207h-188zM858 1130l49 207h187l-50 -207h-186z" />
<glyph unicode="&#xfd;" horiz-adv-x="937" d="M-111 -467l33 139q58 -4 76 -4q71 0 108.5 31t86.5 115l118 202l-108 949h159l76 -770l426 770h178l-729 -1233q-21 -36 -32.5 -54.5t-32 -45.5t-38 -42t-43.5 -30t-56 -23q-34 -10 -111 -10q-53 0 -111 6zM526 1092l176 307h242l-295 -307h-123z" />
<glyph unicode="&#xfe;" d="M-12 -440l436 1886h158l-140 -602q109 139 287 139q44 0 88.5 -10t93.5 -38t85.5 -70.5t59.5 -114t21 -162.5q-1 -85 -20.5 -169.5t-73 -180t-135.5 -160.5q-121 -96 -283 -96q-83 1 -141.5 29t-86 64.5t-50.5 90.5l-142 -606h-157zM342 342q0 -56 16.5 -99t40.5 -67 t55.5 -39t57.5 -19.5t51 -4.5q85 0 156 47q74 48 121.5 132.5t63 160t14.5 147.5q0 40 -9 78q-13 57 -43.5 96t-67.5 54.5t-61.5 20.5t-44.5 5q-47 0 -90.5 -14t-87.5 -46.5t-80.5 -93.5t-60.5 -147q-31 -107 -31 -211z" />
<glyph unicode="&#xff;" horiz-adv-x="937" d="M-111 -467l33 139q50 -4 76 -4q42 0 74 13q15 6 29 16t23 17.5t21 24t16 23t17 28t15 24.5l118 202l-108 949h159l76 -770l426 770h178l-729 -1233q-51 -82 -73 -107q-50 -61 -103.5 -79.5t-144.5 -18.5q-54 0 -103 6zM375 1130l47 207h186l-47 -207h-186zM772 1130 l47 207h187l-48 -207h-186z" />
<glyph unicode="&#x152;" horiz-adv-x="2260" d="M193 627q1 106 20.5 202.5t49.5 166t70.5 131.5t76.5 100.5t75 70.5q199 166 457 166q212 0 344 -110q44 -36 76 -84q15 -21 31 -64l47 240h858l-23 -150h-692l-98 -477h669l-34 -141h-668l-106 -526h823l-35 -152h-993l43 182q-50 -60 -74 -80q-139 -120 -358 -120 q-110 0 -201 36q-70 28 -128 74.5t-92.5 92t-61.5 99.5t-38 87.5t-18 64.5q-20 93 -20 191zM383 623q0 -238 121 -369q68 -74 153 -100q55 -19 125 -19q50 0 82 8q67 13 133 52.5t111 91.5q59 68 102 166q38 86 61 191.5t28.5 166.5t5.5 107q4 206 -111 313q-65 58 -141 76 q-46 12 -119 12q-208 0 -361 -164q-79 -85 -120 -178q-38 -84 -54 -180q-16 -77 -16 -174z" />
<glyph unicode="&#x153;" horiz-adv-x="1792" d="M127 395q0 45 6.5 98t38.5 144.5t86 163.5q45 60 101.5 100.5t111.5 58t94 23.5t76 6q85 0 167 -32t134 -91q22 -23 49 -73q42 51 74 79q129 117 307 117q103 0 187 -43q190 -93 190 -350q0 -53 -14 -137h-719q-6 -70 -0.5 -120t28 -91t45 -65t50.5 -42q73 -47 149 -47 q48 0 108.5 24.5t110.5 86.5q28 39 56 96l155 -25q-23 -51 -26 -57q-60 -101 -138 -158q-48 -35 -112 -56t-101 -25.5t-67 -4.5q-31 0 -67.5 4.5t-98.5 24.5t-109 55q-21 15 -39 33t-27 28.5t-21.5 28t-14.5 19.5q-54 -58 -98 -92q-140 -99 -287 -99q-93 0 -174 39 q-57 27 -99.5 70.5t-63 85t-32.5 91.5t-14 77.5t-2 54.5zM289 399q0 -72 20 -133q16 -48 44 -83t60 -51t58 -23t49 -7q48 0 108 26t115 89q41 48 69.5 110t39 118t14 93.5t2.5 63.5q0 145 -90 217q-65 47 -139 47q-76 0 -152 -47q-52 -34 -91.5 -85.5t-59 -99.5t-31 -101.5 t-14 -82.5t-2.5 -51zM1038 580h547q11 75 -6 133q-20 68 -79 109.5t-132 41.5q-75 0 -151 -45q-62 -38 -105 -96t-59 -96q-9 -19 -15 -47z" />
<glyph unicode="&#x178;" horiz-adv-x="1193" d="M289 1446h182l195 -653l565 653h217l-735 -817l-144 -629h-182l150 649zM600 1591l49 211h189l-50 -211h-188zM997 1591l50 211h186l-49 -211h-187z" />
<glyph unicode="&#x2c6;" horiz-adv-x="598" d="M-4 1083l317 316h150l139 -316h-139l-92 217l-205 -217h-170z" />
<glyph unicode="&#x2dc;" horiz-adv-x="598" d="M-29 1178q15 30 33 57q77 121 189 121q26 0 51 -8t56 -21.5t50 -19.5l56 -19q34 -10 57 -10q21 0 41 10q19 8 32 19t18.5 19t18.5 30l54 -33q-47 -87 -103 -133q-27 -24 -53 -35q-32 -12 -63 -12q-57 0 -187 53q-9 3 -28.5 12t-34 13t-31.5 4q-31 0 -52.5 -16.5 t-43.5 -47.5z" />
<glyph unicode="&#x2000;" horiz-adv-x="969" />
<glyph unicode="&#x2001;" horiz-adv-x="1939" />
<glyph unicode="&#x2002;" horiz-adv-x="969" />
<glyph unicode="&#x2003;" horiz-adv-x="1939" />
<glyph unicode="&#x2004;" horiz-adv-x="646" />
<glyph unicode="&#x2005;" horiz-adv-x="484" />
<glyph unicode="&#x2006;" horiz-adv-x="323" />
<glyph unicode="&#x2007;" horiz-adv-x="323" />
<glyph unicode="&#x2008;" horiz-adv-x="242" />
<glyph unicode="&#x2009;" horiz-adv-x="387" />
<glyph unicode="&#x200a;" horiz-adv-x="107" />
<glyph unicode="&#x2010;" horiz-adv-x="757" d="M143 537l37 155h574l-35 -155h-576z" />
<glyph unicode="&#x2011;" horiz-adv-x="757" d="M143 537l37 155h574l-35 -155h-576z" />
<glyph unicode="&#x2012;" horiz-adv-x="757" d="M143 537l37 155h574l-35 -155h-576z" />
<glyph unicode="&#x2013;" horiz-adv-x="1228" d="M143 537l37 155h1045l-37 -155h-1045z" />
<glyph unicode="&#x2014;" horiz-adv-x="1832" d="M143 537l37 155h1649l-37 -155h-1649z" />
<glyph unicode="&#x2018;" horiz-adv-x="468" d="M274 905q19 152 64 274.5t127 266.5h102q-39 -71 -57 -106.5t-38.5 -92.5t-31.5 -117h76l-43 -225h-199z" />
<glyph unicode="&#x2019;" horiz-adv-x="468" d="M297 899q92 153 129 320h-78l53 227h203q-17 -141 -68.5 -271.5t-134.5 -275.5h-104z" />
<glyph unicode="&#x201a;" horiz-adv-x="468" d="M16 -315q53 95 82.5 162.5t48.5 152.5h-84l54 225h194q-38 -299 -194 -540h-101z" />
<glyph unicode="&#x201c;" horiz-adv-x="724" d="M248 907q36 278 190 539h97q-83 -163 -123 -313h82l-54 -226h-192zM555 907q35 270 199 539h98q-95 -149 -131 -313h86l-53 -226h-199z" />
<glyph unicode="&#x201d;" horiz-adv-x="724" d="M283 909q91 181 118 316h-90l51 221h199q-7 -47 -14.5 -87.5t-21 -84t-21 -68.5t-28.5 -74.5t-28.5 -66t-36 -78t-36.5 -78.5h-92zM598 909q83 166 125 316h-86l51 221h203q-27 -149 -73.5 -271t-127.5 -266h-92z" />
<glyph unicode="&#x201e;" horiz-adv-x="724" d="M-2 -311q90 167 127 311h-86l53 227h197q-21 -147 -67 -271.5t-126 -266.5h-98zM313 -311q93 190 123 311h-84l54 227h192q-32 -262 -188 -538h-97z" />
<glyph unicode="&#x2022;" horiz-adv-x="681" d="M150 494l106 460h465l-105 -460h-466z" />
<glyph unicode="&#x2026;" horiz-adv-x="2048" d="M172 0l45 190h193l-43 -190h-195zM856 0l43 190h195l-45 -190h-193zM1540 0l43 190h195l-45 -190h-193z" />
<glyph unicode="&#x202f;" horiz-adv-x="387" />
<glyph unicode="&#x2039;" horiz-adv-x="468" d="M152 602l30 135l338 236l-47 -197l-180 -119l123 -135l-39 -164z" />
<glyph unicode="&#x203a;" horiz-adv-x="468" d="M113 354l45 193l182 123l-123 135l37 164l227 -242l-32 -141z" />
<glyph unicode="&#x205f;" horiz-adv-x="484" />
<glyph unicode="&#x20ac;" horiz-adv-x="1581" d="M121 547l78 127h104q3 51 12 100h-147l78 127h96q81 275 278.5 418t485.5 143q164 0 285.5 -51.5t214.5 -173.5l-99 -164q-62 120 -168 181t-243 61q-210 0 -345.5 -105t-209.5 -309h872l-76 -127h-825q-9 -49 -12 -100h782l-78 -127h-706q17 -205 138.5 -321.5 t324.5 -116.5q156 0 268.5 41.5t222.5 144.5l-55 -223q-185 -109 -443 -109q-184 0 -324.5 67.5t-225.5 200t-99 316.5h-184z" />
<glyph unicode="&#x2122;" horiz-adv-x="1421" d="M252 1346l22 100h512l-22 -100h-193l-135 -580h-121l134 580h-197zM700 766l158 680h158l39 -543l291 543h153l-156 -680h-110l127 534l-277 -534h-110l-39 526l-119 -526h-115z" />
<glyph unicode="&#x25fc;" horiz-adv-x="962" d="M0 0v963h963v-963h-963z" />
</font>
</defs>
</svg>
