<?xml version="1.0" standalone="no"?>
<!DOCTYPE svg PUBLIC "-//W3C//DTD SVG 1.1//EN" "http://www.w3.org/Graphics/SVG/1.1/DTD/svg11.dtd" >
<svg xmlns="http://www.w3.org/2000/svg" xmlns:xlink="http://www.w3.org/1999/xlink" version="1.1">
<metadata></metadata>
<defs>
<font id="akzidenz-grotesk_bq_condensRg" horiz-adv-x="724" >
<font-face units-per-em="2048" ascent="1638" descent="-410" />
<missing-glyph horiz-adv-x="425" />
<glyph horiz-adv-x="0" />
<glyph horiz-adv-x="682" />
<glyph unicode=" "  horiz-adv-x="425" />
<glyph unicode="&#x09;" horiz-adv-x="425" />
<glyph unicode="&#xa0;" horiz-adv-x="425" />
<glyph unicode="!" horiz-adv-x="425" d="M168 0v242h176v-242h-176zM168 991v455h176v-455l-45 -598h-90z" />
<glyph unicode="&#x22;" horiz-adv-x="557" d="M59 1518h158l-47 -592h-59zM338 1518h160l-49 -592h-58z" />
<glyph unicode="#" horiz-adv-x="1101" d="M31 471v158h256l20 219h-248v158h267l39 440h163l-41 -440h179l43 440h161l-43 -440h242v-158h-254l-20 -219h247v-158h-264l-43 -471h-162l43 471h-178l-45 -471h-162l43 471h-243zM451 629h180l20 219h-180z" />
<glyph unicode="$" horiz-adv-x="811" d="M59 339.5v42v38.5v80h168v-80q0 -102 4 -131q8 -88 70 -129q29 -16 51 -23v535l-86 90q-3 3 -22 22.5t-33.5 37t-32.5 42.5q-48 64 -65 123t-17 148q0 205 117 282q60 39 139 47v172h117l2 -172q122 -9 186 -73q33 -35 49.5 -83.5t19.5 -84t3 -95.5v-110h-164v80 q0 75 -10.5 116t-38.5 66q-20 17 -47 23v-488l96 -104q54 -58 81 -90t58 -81.5t43.5 -101.5t12.5 -116q0 -67 -16.5 -123t-44 -92t-55 -58.5t-58.5 -36.5q-42 -21 -117 -30v-175h-117v175q-38 5 -51 8q-41 7 -95 36t-93 87q-11 17 -19.5 36.5t-14.5 35t-10 40t-6 37t-3 40.5 t-1 37.5zM266 1139q0 -38 7 -69.5t22 -57.5t23.5 -37t27.5 -32q4 -5 6 -7v367q-25 -11 -41 -27q-45 -43 -45 -137zM469 543l2 -406q19 6 47 23q34 24 50 70t16 94q0 43 -17 82q-29 68 -98 137z" />
<glyph unicode="%" horiz-adv-x="1280" d="M43 991q0 35 1 104.5t1 104.5q0 94 20 144t64 79q54 35 125 35q64 0 111 -26q62 -32 82 -92t20 -146q0 -33 1 -99.5t1 -99.5q0 -73 -4 -217q0 -100 -27 -153q-50 -93 -182 -93q-81 0 -131 33q-53 35 -65.5 92t-14.5 190v9v8q0 20 -1 62.5t-1 64.5zM180 995q0 -29 1 -89 t1 -89v-76q0 -84 72 -84q62 0 70 52q6 48 6 129q0 25 -1 76t-1 77l1 111q1 110 -1 110q0 2 -0.5 16t-0.5 17.5t-1.5 16t-2.5 16.5t-4 14t-6.5 13.5t-9 10t-12.5 9t-16.5 4.5t-20.5 2q-56 0 -68 -55q-6 -34 -6 -146v-135zM238 0l710 1446h94l-704 -1446h-100zM811 449 q0 35 1 104t1 104q0 94 20 144.5t64 79.5q53 34 125 34q64 0 111 -26q62 -32 82 -92t20 -146q0 -33 1 -98.5t1 -99.5q0 -73 -4 -217q0 -101 -27 -154q-49 -92 -182 -92q-81 0 -131 33q-53 35 -65.5 92t-14.5 190v17q0 20 -1 62.5t-1 64.5zM948 453q0 -30 1 -89.5t1 -87.5 v-77q0 -84 72 -84q62 0 70 51q6 48 6 129q0 25 -1 77t-1 77l1 111q1 110 -1 110q0 2 -0.5 16t-0.5 17t-1.5 15.5t-2.5 16.5t-4 13.5t-6.5 13.5t-9 10.5t-12.5 9t-16.5 4.5t-20.5 2q-56 0 -68 -55q-6 -34 -6 -145v-135z" />
<glyph unicode="&#x26;" horiz-adv-x="937" d="M43 315q0 55 21.5 132.5t76.5 154.5q15 21 26.5 34t20 20.5t28 26.5t42.5 44q-94 195 -94 303q0 43 12 80q8 26 22.5 50.5t41 52t71.5 44.5t101 17q44 0 96 -17q23 -8 46 -21.5t50.5 -38t44.5 -66t17 -93.5q0 -95 -74 -202q-48 -72 -131 -148q15 -32 31 -63t40 -72 t33 -57t42 -70t36 -59q0 1 6 11.5t11.5 22t9.5 23.5q22 69 22 203h158q3 -34 0 -68q-3 -42 -17 -116t-42 -140q-8 -22 -46 -88q9 -15 23 -29q8 -8 18 -15t18.5 -11.5t19.5 -7.5t18.5 -4.5t17.5 -2t14.5 -0.5h12.5h8v-153q-126 -7 -207 53q-13 9 -45 41l-37 -31 q-89 -75 -235 -75q-149 0 -239.5 92.5t-88.5 242.5zM215 311q0 -34 10 -73q5 -15 14.5 -31.5t27 -36t46.5 -32.5t64 -13q99 0 166 86q-52 70 -87 131.5t-122 230.5q-29 -22 -43 -38q-76 -81 -76 -224zM324 1026q0 -40 14.5 -80.5t52.5 -109.5l29 28q43 43 68.5 83t25.5 87 q0 55 -31.5 79t-64.5 24q-49 0 -74 -31q-20 -27 -20 -80z" />
<glyph unicode="'" horiz-adv-x="278" d="M59 1518h158l-47 -592h-59z" />
<glyph unicode="(" horiz-adv-x="598" d="M141 569q0 241 89 460t251 441l88 -77q-129 -182 -186 -376.5t-57 -428.5q0 -466 188 -768q6 -10 66 -96l-82 -74q-74 76 -160 233q-197 356 -197 686z" />
<glyph unicode=")" horiz-adv-x="598" d="M16 -276q138 188 197 401t59 467q0 232 -57.5 426t-187.5 375l88 77q158 -207 250 -436.5t92 -464.5q0 -180 -50.5 -344.5t-148.5 -341.5q-86 -157 -158 -233z" />
<glyph unicode="*" horiz-adv-x="679" d="M53 1194l33 111l193 -54v201h116v-205l195 68l39 -107l-197 -71l121 -164l-92 -70l-125 164l-111 -166l-94 70l111 166z" />
<glyph unicode="+" horiz-adv-x="1142" d="M170 535v149h317v348h170v-348h316v-149h-316v-347h-170v347h-317z" />
<glyph unicode="," horiz-adv-x="342" d="M84 0v242h174v-250q0 -114 -36.5 -182.5t-137.5 -90.5v107q47 11 62.5 46t15.5 91q0 25 -2 37h-76z" />
<glyph unicode="-" horiz-adv-x="544" d="M51 518v160h443v-160h-443z" />
<glyph unicode="." horiz-adv-x="342" d="M84 0v242h174v-242h-174z" />
<glyph unicode="/" horiz-adv-x="598" d="M10 0l412 1446h166l-406 -1446h-172z" />
<glyph unicode="0" horiz-adv-x="768" d="M57 838q0 28 1 87t1 89q0 100 4 149q8 97 42.5 162.5t111.5 104.5q70 34 166 34q102 0 176 -41q48 -26 80 -67t46 -93.5t19 -98.5t5 -107q0 -55 1 -165.5t1 -166.5q0 -43 -2 -127.5t-2 -126.5v-127q0 -101 -21.5 -175t-85.5 -124q-83 -63 -213 -63q-114 0 -194 47 q-39 22 -64.5 53t-39.5 66t-20.5 89.5t-8 106.5t-1.5 133v51q-4 205 -2 310zM236 848q0 -252 2 -379q0 -146 4 -188q4 -41 13 -66.5t36 -46.5q37 -27 92 -27q53 0 85.5 21.5t43.5 50.5q5 12 8 33t5 40.5t2.5 48t0.5 45v43v30.5v594q0 81 -5 124t-21 72q-34 60 -117 60 q-32 0 -56.5 -8.5t-38.5 -20.5t-23.5 -30t-13.5 -30.5t-7 -29.5q-10 -61 -10 -336z" />
<glyph unicode="1" horiz-adv-x="768" d="M76 1135v137q65 0 96 4q85 8 128 47.5t44 122.5h152v-1446h-181v1135h-239z" />
<glyph unicode="2" horiz-adv-x="768" d="M70 0v174l299 506q38 65 65 117q49 90 64.5 150.5t15.5 162.5q0 57 -6 82q-22 108 -129 108q-52 0 -86 -34q-7 -8 -13 -16t-10 -18.5t-7.5 -17t-5 -20.5t-3 -18.5t-2 -21t-0.5 -19v-21.5v-18v-166h-166v180q0 10 1 30t1 29q5 99 34 156q31 61 87 96q71 43 168 43 q68 0 121.5 -20.5t85.5 -55t49.5 -64.5t28.5 -62q22 -73 22 -175q0 -159 -63 -301q-22 -50 -72 -133l-297 -497h450v-156h-632z" />
<glyph unicode="3" horiz-adv-x="768" d="M61 315q0 19 1 58.5t1 60.5l164 -2q-2 -44 2 -131q2 -51 12 -81t42 -54q38 -27 86 -27q58 0 96 29q13 10 23 22.5t15.5 30t9.5 28.5t5.5 34.5t2 30.5t0 34t-0.5 29q0 15 1 44t1 44q0 104 -33 156q-41 61 -153 61q-37 0 -57 -2l2 162h1q13 1 40.5 -1.5t70 7t64.5 31.5 q51 46 51 170q0 65 -6 133q-1 21 -5 38t-15.5 39t-39 35t-67.5 13q-51 0 -80 -29q-27 -27 -36 -68t-9 -118q0 -38 2 -56h-164q-3 58 0 117q2 53 9 93t23.5 80.5t49 70t80.5 47.5q60 20 131 20q98 0 176 -47q66 -44 94.5 -119t28.5 -215q0 -115 -14.5 -175t-55.5 -95 q-11 -10 -23 -17.5t-24 -12t-20 -6.5t-19 -4.5t-12 -2.5q67 -16 99 -39q50 -36 69 -104q22 -75 22 -281q0 -105 -24 -170q-12 -32 -32 -62t-54 -62t-89.5 -51t-123.5 -19q-137 0 -227 71q-45 36 -68 96.5t-23 165.5z" />
<glyph unicode="4" horiz-adv-x="768" d="M43 324v198l293 924h252v-969h127v-153h-127v-324h-170v324h-375zM178 477h240l8 807z" />
<glyph unicode="5" horiz-adv-x="768" d="M57 344q0 53 2 80l170 -2q-2 -92 2 -137.5t21 -77.5q16 -32 50.5 -48t72.5 -16q79 0 117 54q10 15 16 34.5t8.5 42.5t3 51.5t0 60.5t0.5 71q0 20 1 62.5t1 64.5q0 116 -12 157q-9 34 -38.5 63.5t-86.5 29.5q-45 0 -74 -23q-27 -20 -37 -52t-10 -95h-164l23 782h559v-156 h-395l-11 -360q4 7 29 24q61 39 146 39t149 -47q60 -45 79 -120t19 -230q0 -41 -1 -123.5t-1 -124.5q-1 -57 -4.5 -91t-18 -78.5t-42.5 -80.5q-87 -116 -262 -116q-153 0 -236 92q-43 49 -57 102q-19 59 -19 168z" />
<glyph unicode="6" horiz-adv-x="768" d="M70 463v635q0 146 37.5 222.5t113.5 113.5q64 30 156 30q191 0 264 -123q22 -35 32 -77t9.5 -79.5t-0.5 -82.5l-168 2v23v21.5v18.5t-0.5 17.5t-1 14.5t-1.5 14.5t-2.5 12.5t-3.5 12.5t-5 10.5q-13 23 -43 39.5t-76 16.5q-133 0 -141 -156q-2 -33 -2 -197v-110 q19 22 29.5 33t36.5 31.5t59.5 30t74.5 9.5q53 0 101 -20q46 -19 83 -56t54 -84q24 -73 24 -309q0 -93 -6 -192q-5 -79 -20 -129t-58 -90q-86 -84 -239 -84q-138 0 -213 67q-65 58 -79.5 139t-14.5 275zM240 326q0 -82 22 -123q35 -64 123 -64q90 0 119 70q20 46 20 250 q0 111 -2 168q-4 79 -24 110q-35 58 -119 58q-92 0 -121 -78q-18 -53 -18 -248v-143z" />
<glyph unicode="7" horiz-adv-x="768" d="M68 1286v160h630v-133q-38 -74 -41 -80q-48 -102 -106 -291q-72 -240 -98 -445.5t-33 -496.5h-197q3 93 8.5 168.5t21.5 202.5t50.5 272.5t85.5 296.5q30 90 129 346h-450z" />
<glyph unicode="8" horiz-adv-x="768" d="M66 342q0 190 8 244q12 76 49 121q40 48 108 63q-21 0 -53 14q-73 33 -88 146q-8 57 -8 186q0 106 25.5 183t99.5 122q68 43 180 43q93 0 156 -29.5t94 -70.5q55 -71 55 -229q0 -126 -8 -189q-10 -128 -102 -164q-9 -4 -45 -12q61 -12 102 -55q37 -39 50 -95.5t13 -164.5 q0 -114 -2.5 -161.5t-15.5 -96.5q-18 -70 -53.5 -114t-100.5 -71q-72 -30 -155 -30q-98 0 -176 43q-68 39 -100.5 110t-32.5 207zM242 379q0 -13 1 -37t1 -37q4 -79 30 -115q35 -47 109 -47q102 0 131 90q12 42 12 175q0 65 -2 98q0 16 -1 30.5t-9 42t-21.5 46t-42 33.5 t-67.5 14q-80 0 -111 -51q-12 -17 -18 -38t-7.5 -32.5t-2 -42.5t-0.5 -37q0 -15 -1 -46t-1 -46zM248 1083q0 -61 2 -92q3 -66 31 -100q35 -45 110 -45q55 0 83.5 28.5t37.5 61.5q6 29 10 162q0 102 -8 131q-8 36 -37.5 64.5t-89.5 27.5q-55 0 -88 -27q-29 -25 -40 -74.5 t-11 -136.5z" />
<glyph unicode="9" horiz-adv-x="768" d="M59 885q0 103 7 254q3 52 6.5 82.5t14.5 69t33.5 67t57.5 53.5q79 53 201 53q85 0 135.5 -20.5t87.5 -57.5q31 -26 57 -79q12 -25 19 -49.5t9.5 -63.5t3 -61t0 -87.5t-0.5 -97.5q0 -78 -1 -234.5t-1 -234.5v-157q0 -162 -80 -252q-76 -88 -233 -88q-109 0 -176.5 43.5 t-96.5 101.5q-26 58 -26 149q0 19 1 53.5t1 51.5h164l-1 -55q-1 -54 1 -56q2 -36 9 -57.5t30 -40.5q35 -31 98 -31q51 0 84 27q34 27 43 67t12 136q0 15 1 43t1 43q0 27 -1 83t-1 83q-27 -25 -45 -39.5t-64.5 -33t-99.5 -18.5q-128 0 -200 99q-50 73 -50 254zM233 850 q0 -42 17 -82q36 -80 129 -80q67 0 104 43q19 24 31 60q6 27 6 71v275q0 92 -47 137q-35 33 -92 33q-90 0 -129 -80q-7 -16 -10.5 -33.5t-4 -29t-1 -46t-0.5 -55.5q0 -15 -1.5 -46t-1.5 -46v-121z" />
<glyph unicode=":" horiz-adv-x="425" d="M168 0v242h176v-242h-176zM168 735v242h176v-242h-176z" />
<glyph unicode=";" horiz-adv-x="425" d="M168 0v242h176v-250q0 -55 -7 -96.5t-25.5 -79t-54.5 -62t-89 -35.5v105q14 6 25.5 12t19.5 15.5t13.5 15t9.5 19.5t6 18.5t3 22.5t1 22v26v25h-78zM168 745v232h176v-232h-176z" />
<glyph unicode="&#x3c;" horiz-adv-x="1144" d="M180 553v160l733 399v-172l-571 -301l571 -297v-186z" />
<glyph unicode="=" horiz-adv-x="1144" d="M174 371v147h797v-147h-797zM174 719v147h797v-147h-797z" />
<glyph unicode="&#x3e;" horiz-adv-x="1144" d="M231 156v170l572 301l-572 299v184l734 -395v-160z" />
<glyph unicode="?" horiz-adv-x="811" d="M117 954v205q0 109 33 174q34 67 111 101t159 34q22 0 45.5 -2.5t63.5 -13.5t73.5 -29.5t66.5 -55.5t50 -87q18 -55 18 -145q0 -113 -8 -162q-4 -28 -10.5 -50t-20.5 -49t-24.5 -44.5t-37.5 -60.5t-46 -73q-37 -61 -41 -69q-29 -62 -29 -146q0 -61 2 -94h-135v80 q0 62 1 84t9.5 66t28.5 88t57 112q5 10 17.5 31t21.5 37.5t15 32.5q17 37 20.5 65.5t3.5 103.5q0 11 1 33t1 35q0 39 -8 62q-14 34 -48 61t-93 27q-39 0 -76 -19q-40 -22 -51 -57t-11 -90v-185h-159zM367 0v242h176v-242h-176z" />
<glyph unicode="@" horiz-adv-x="1671" d="M92 473q0 203 70.5 386t190 314.5t286 209t350.5 77.5q278 0 441 -159t163 -429q0 -132 -43.5 -276t-115.5 -248q-67 -98 -147.5 -151.5t-160.5 -53.5q-148 0 -157 174q-129 -172 -285 -172q-116 0 -184 90t-68 242q0 147 60 283t158.5 218.5t205.5 82.5q91 0 158 -64 q39 -39 65 -110l31 127h133l-117 -539q-4 -20 -8 -61q-4 -40 -4 -64q0 -38 15.5 -61t41.5 -23q65 0 138 92q77 94 121.5 228t44.5 272q0 235 -129.5 365.5t-362.5 130.5q-263 0 -465 -178q-177 -157 -254 -416q-45 -155 -45 -291q0 -275 174 -445.5t453 -170.5 q172 0 348 81.5t309 223.5l64 -84q-47 -47 -72 -70q-138 -123 -309 -189.5t-346 -66.5q-225 0 -400 96q-171 94 -259.5 254t-88.5 375zM592 483q0 -98 36.5 -151t104.5 -53q77 0 145 62t109 165.5t41 220.5q0 90 -43.5 145.5t-114.5 55.5t-135.5 -62t-103.5 -165.5 t-39 -217.5z" />
<glyph unicode="A" horiz-adv-x="811" d="M0 0l311 1446h181l319 -1446h-188l-52 279h-335l-50 -279h-186zM266 434h275l-142 744z" />
<glyph unicode="B" horiz-adv-x="894" d="M102 0v1446h359q102 0 159.5 -22t98.5 -66q82 -90 82 -252q0 -157 -62 -242q-37 -48 -90 -69q-39 -15 -80 -15q78 0 136 -39q118 -76 118 -297q0 -135 -19 -207.5t-65 -125.5q-49 -58 -108 -82q-51 -20 -103 -24.5t-176 -4.5h-250zM283 158h104q24 -1 44 -1q51 0 81 7 q67 14 100 67t33 166q0 153 -31 213q-23 38 -49 56q-23 15 -49.5 21.5t-49.5 7.5t-85 1h-98v-538zM283 852h123q59 0 88 4q62 11 96.5 60t34.5 153q0 129 -56 178q-8 7 -17 12t-20 9t-19.5 7t-22 4.5t-20.5 2.5t-22.5 1.5t-20.5 0.5h-21.5h-18.5h-104v-432z" />
<glyph unicode="C" horiz-adv-x="854" d="M90 508v231q0 162 2 244q1 65 2.5 94.5t8 89.5t23 104t42.5 79q44 60 122.5 89t162.5 29q149 0 241 -92q42 -43 59 -107.5t17 -183.5q0 -63 -2 -94h-166q0 105 -2 158t-12 83.5t-43 55.5q-39 29 -92 29q-135 0 -164 -127q-21 -96 -21 -475q0 -161 6 -324v-34.5t1.5 -42.5 t4.5 -37t8.5 -41t14.5 -33q40 -72 146 -72q57 0 96 31q24 18 38.5 45.5t19.5 68.5t6 60.5t1 64.5v107h168q0 -103 -2 -154q0 -76 -8 -125q-10 -55 -28.5 -96t-44 -66t-47.5 -38.5t-50 -24.5q-65 -24 -160 -24q-135 0 -219 63q-40 35 -67 74q-39 59 -50.5 142.5t-11.5 248.5z " />
<glyph unicode="D" horiz-adv-x="894" d="M102 0v1446h273h29h30t28 -0.5t30.5 -1.5t28 -2t29.5 -4t27.5 -6t29.5 -8t28 -11q139 -61 162 -233q10 -76 10 -383q0 -110 -4 -322q0 -81 -6 -160q-18 -204 -152 -276q-18 -9 -36.5 -16t-40.5 -11.5t-36.5 -7t-42 -3.5t-37 -1h-41.5h-38h-271zM283 160h118q101 0 144 22 q27 14 44 37.5t27 71.5q13 71 13 373q0 296 -2 356q-2 93 -12 140t-40 77q-7 7 -16.5 12.5t-17.5 10t-20.5 7.5t-20 5.5t-22 4t-21 2t-22.5 1t-20.5 0.5h-21h-18.5h-92v-1120z" />
<glyph unicode="E" horiz-adv-x="811" d="M102 0v1446h637v-162h-456v-430h399v-164h-399v-528h471v-162h-652z" />
<glyph unicode="F" horiz-adv-x="768" d="M102 0v1446h637v-162h-454v-426h395v-158h-395v-700h-183z" />
<glyph unicode="G" horiz-adv-x="894" d="M90 719q0 154 6 307q0 147 23 225q65 217 340 217q147 0 229 -55q26 -17 47 -43q35 -41 49 -90q13 -47 13 -174v-102h-170v71q0 13 -1 37t-1 37q-1 24 -3 41t-11.5 43t-25.5 42.5t-47.5 29t-74.5 12.5q-68 0 -113 -31q-24 -16 -37 -33q-14 -19 -22 -57q-21 -102 -21 -410 v-174q0 -120 6 -243l4 -72t5 -42t12 -42q42 -86 145 -86q78 0 131 47q32 25 48 64q20 53 20 206v148h-213v156h381v-748h-152v100q-39 -39 -57 -53q-90 -67 -201 -67h-6q-31 0 -63 6.5t-75.5 25t-80 61.5t-55.5 105q-12 39 -17.5 86t-7 85t-2.5 140q-2 76 -2 230z" />
<glyph unicode="H" horiz-adv-x="894" d="M102 0v1446h181v-615h329v615h181v-1446h-181v674h-329v-674h-181z" />
<glyph unicode="I" horiz-adv-x="382" d="M102 0v1446h179v-1446h-179z" />
<glyph unicode="J" horiz-adv-x="811" d="M38.5 328.5q-0.5 13.5 0 58.5t0.5 49h174v-131q0 -61 18 -96q39 -76 136 -76q161 0 168 182v148v983h180v-973q0 -67 -2 -102q0 -4 -0.5 -29t-0.5 -30.5t-1 -28t-2.5 -30t-4 -27t-6 -28.5t-8.5 -26t-11.5 -28t-15 -25t-18.5 -27q-94 -115 -287 -115q-125 0 -211 66 q-46 38 -65 76q-12 21 -20.5 49t-13 48.5t-7 59.5t-3 52.5z" />
<glyph unicode="K" horiz-adv-x="854" d="M102 0v1446h179v-623l372 623h201l-342 -545l342 -901h-201l-256 739l-116 -174v-565h-179z" />
<glyph unicode="L" d="M102 0v1446h185v-1284h424v-162h-609z" />
<glyph unicode="M" horiz-adv-x="1150" d="M102 0v1446h271l202 -1290l199 1290h275v-1446h-166l24 1309l-215 -1309h-227l-215 1309l29 -1309h-177z" />
<glyph unicode="N" horiz-adv-x="894" d="M102 0v1446h248l293 -1266l-25 1266h175v-1446h-254l-283 1253l25 -1253h-179z" />
<glyph unicode="O" horiz-adv-x="894" d="M90 645q0 129 4 391q3 122 21 192.5t57 121.5q93 118 293 118q22 0 41 -1t59.5 -9.5t72.5 -24t67.5 -47.5t56.5 -77q29 -59 35 -129q12 -99 12 -285q0 -70 -2 -152q0 -49 -3.5 -138t-4.5 -118q0 -43 -4 -129q-8 -101 -30.5 -177t-78.5 -126q-86 -75 -250 -75h-6h-3 q-189 0 -271 116q-30 39 -43 92q-11 38 -16 114.5t-6 142t-1 200.5zM274 862q0 -279 2 -418q0 -163 15 -211q35 -106 155 -106q47 0 85.5 21.5t56.5 62.5q20 41 25.5 116.5t7.5 223.5q2 63 2 192q0 201 -2 301q0 48 -0.5 69.5t-7.5 64.5t-21 67q-15 28 -50 50t-89 22 q-64 0 -107 -35q-48 -38 -60 -105t-12 -214v-101z" />
<glyph unicode="P" horiz-adv-x="854" d="M102 0v1446h375q98 0 151.5 -24.5t92.5 -71.5q14 -17 25 -34t18.5 -37.5t13.5 -35t9.5 -40t5.5 -36.5t3 -41t1 -37.5v-41.5v-39v-4q1 -17 1 -33q0 -194 -77 -287q-32 -38 -85.5 -59.5t-97.5 -26t-104 -4.5h-151v-594h-181zM283 752h120h41t36.5 2t40 7t30.5 14t31.5 24.5 t21.5 36.5q17 37 17 161q0 81 -5 140q-4 35 -14.5 60.5t-29.5 41t-37 24.5t-48.5 13t-51.5 5t-58 1h-94v-530z" />
<glyph unicode="Q" horiz-adv-x="894" d="M90 594q0 144 4 418q1 66 3.5 105.5t15.5 98.5t37 99q87 153 317 153q249 0 311 -198q20 -61 26.5 -146.5t6.5 -246.5q0 -193 -10 -435q-5 -149 -18 -208q-17 -76 -54 -130q-38 -56 -84 -79l178 -152l-100 -104l-219 213q-26 -2 -55 -2t-60 2q-254 18 -287 262 q-12 102 -12 350zM274 729q0 -221 2 -330q0 -7 0.5 -37.5t1.5 -45t4 -39.5t8.5 -43.5t14.5 -34.5q21 -36 60 -54t84 -18q58 0 93 23t48 53q7 14 12 30.5t8 40t5 41t3 52t1.5 53t1 63.5t0.5 66q1 33 3 97t3 97v27q0 84 -4 332q0 215 -170 215q-90 0 -136 -68 q-27 -38 -34 -102q-3 -26 -5.5 -55t-3 -76t-0.5 -75v-103v-109z" />
<glyph unicode="R" horiz-adv-x="894" d="M102 0v1446h316q88 0 153 -13t117 -55q113 -92 113 -317q0 -91 -15 -180q-17 -99 -59 -152q-44 -54 -121 -74l258 -655h-188l-246 635h-149v-635h-179zM281 776h94q110 0 157 17q26 11 44 33t26.5 44t13 57t5 53t0.5 52q0 104 -17 154q-10 28 -29 47.5t-37 29t-49.5 14 t-48.5 5t-53 0.5h-18h-88v-506z" />
<glyph unicode="S" horiz-adv-x="811" d="M55 340v160h170v-72q0 -81 3 -119t14 -71q14 -40 53 -72.5t108 -32.5q55 0 100 24t66 70q17 37 17 86q0 30 -3.5 54.5t-15 49.5t-18 38.5t-29.5 39.5t-30.5 34t-38.5 40l-195 201q-92 95 -129 169.5t-37 193.5q0 78 16 137q61 198 320 198q24 0 45.5 -1.5t64 -11.5 t74.5 -28t63.5 -56t45.5 -91q12 -49 12 -168v-92h-160q-2 90 -2 119q0 59 -15.5 98.5t-61.5 62.5q-35 15 -76 15q-70 0 -109 -39q-7 -6 -13 -14t-10.5 -16t-4.5 -9q-15 -34 -15 -96q0 -49 12 -84q8 -24 26 -51t29 -40t42 -46t35 -37l227 -242q18 -20 45 -55q80 -103 80 -258 q0 -199 -131 -287q-90 -61 -226 -61q-17 0 -31 0.5t-43.5 4.5t-54 11.5t-56 22t-56 35t-47.5 52.5t-37 72q-23 68 -23 162z" />
<glyph unicode="T" horiz-adv-x="768" d="M20 1284v162h728v-162h-275v-1284h-178v1284h-275z" />
<glyph unicode="U" horiz-adv-x="894" d="M96 360v1086h183v-959v-57.5v-55t0.5 -44t2.5 -43.5t5 -32.5t8 -29.5q22 -59 86 -80q30 -10 72 -10q46 0 76.5 11t54.5 42q18 24 24 52q8 39 8 178v1028h183v-1079q0 -60 -4 -101.5t-18 -90.5t-45 -86t-79 -64q-82 -45 -209 -45q-178 0 -264 83q-37 37 -59 99 q-25 72 -25 198z" />
<glyph unicode="V" horiz-adv-x="768" d="M0 1446h184l201 -1268l201 1268h182l-268 -1446h-230z" />
<glyph unicode="W" horiz-adv-x="1280" d="M0 1446h178l178 -1268l170 1268h232l166 -1268l180 1268h176l-244 -1446h-237l-158 1198l-164 -1198h-241z" />
<glyph unicode="X" horiz-adv-x="811" d="M0 0l276 788l-258 658h199l174 -555l162 555h192l-237 -658l303 -788h-195l-221 627l-207 -627h-188z" />
<glyph unicode="Y" horiz-adv-x="811" d="M0 1446h190l216 -723l215 723h190l-317 -860v-586h-187v586z" />
<glyph unicode="Z" horiz-adv-x="768" d="M45 0v147l475 1137h-407v162h610v-137l-483 -1149h483v-160h-678z" />
<glyph unicode="[" horiz-adv-x="641" d="M199 -350v1820h401v-129h-229v-1560h229v-131h-401z" />
<glyph unicode="\" horiz-adv-x="598" d="M10 1446h166l410 -1446h-170z" />
<glyph unicode="]" horiz-adv-x="641" d="M39 -219h231v1560h-231v129h403v-1820h-403v131z" />
<glyph unicode="^" horiz-adv-x="1144" d="M127 733l362 713h164l363 -713h-182l-263 555l-260 -555h-184z" />
<glyph unicode="_" horiz-adv-x="1024" d="M-20 -301h1064v-121h-1064v121z" />
<glyph unicode="`" horiz-adv-x="468" d="M68 1374h223l110 -219h-131z" />
<glyph unicode="a" d="M39 248q0 135 82 217q21 22 46 40t71 48t84 57q67 46 149 123v35q0 143 -125 143q-35 0 -60 -11t-37 -24t-18.5 -36t-7 -35t-0.5 -32v-7q0 -24 4 -78h-149q0 59 2 88q1 48 3 69t13.5 52.5t34.5 58.5q42 50 98.5 68t132.5 18q136 0 207 -73q33 -35 52 -86q12 -41 12 -174 v-492q0 -145 18 -182q5 -9 31 -35h-201v123q-10 -20 -17.5 -33.5t-26 -36t-39.5 -36t-55 -24.5t-75 -11q-70 0 -123 32q-61 37 -83.5 94.5t-22.5 139.5zM207 254q0 -152 109 -152h3q66 0 113 60q25 33 32 73t7 97v252q-30 -30 -57 -54q-16 -12 -52 -36q-80 -61 -106 -91 q-49 -66 -49 -149z" />
<glyph unicode="b" horiz-adv-x="768" d="M90 0v1446h162v-504q3 3 8.5 9.5t12.5 14.5t16 15q66 61 164 61q86 0 138 -40.5t71 -86.5q32 -74 32 -305q0 -203 -4 -305q-8 -146 -33 -199q-12 -26 -32.5 -51t-67.5 -49t-106 -24q-42 0 -77 10.5t-64 34t-37.5 31.5t-28.5 32v-90h-154zM251.5 681.5 q0.5 -30.5 0.5 -48.5v-234q0 -71 0.5 -98t5.5 -63t16 -56q18 -32 56.5 -52.5t75.5 -20.5q90 0 110 96q12 59 12 287q0 115 -2 172q-6 117 -6 120l-2 10q-1 9 -2 14t-3.5 17t-5.5 19.5t-8.5 19t-11.5 19t-15 16t-20 13.5t-25 8.5t-30 3.5q-18 0 -38.5 -5.5t-47.5 -26.5 t-41 -54q-6 -13 -9.5 -26.5t-5.5 -24t-2.5 -31t-1 -32.5t0 -42.5z" />
<glyph unicode="c" d="M74 467q0 158 8 283q0 1 1 11.5l2 21t4 27.5t6.5 32.5t10 34.5t14 35.5t18.5 33t24 29.5q67 67 209 67q177 0 239 -102q30 -49 37.5 -104.5t7.5 -182.5h-155q0 88 -4 133q0 51 -21 84q-32 50 -104 50q-103 0 -121 -105q-12 -73 -12 -305q0 -71 4 -215q0 -91 18 -125 q31 -59 109 -59q109 0 123 120q8 64 8 150h155q0 -134 -12 -199.5t-53 -113.5q-42 -50 -99.5 -68t-134.5 -18q-101 0 -161 36t-84 88q-23 48 -30 131.5t-7 229.5z" />
<glyph unicode="d" horiz-adv-x="768" d="M74 504q0 73 4 221q5 113 31 176q27 66 83 104q54 37 121 37h4q90 0 154 -53q14 -11 41 -45v502h166v-1446h-154v106q-7 -13 -35 -47q-67 -77 -180 -77q-51 0 -91 17t-62.5 40t-38 55.5t-21 53t-8.5 42.5q-14 100 -14 314zM238 541q0 -197 2 -236q3 -81 16 -117 q7 -16 18 -31t38 -30.5t61 -15.5q33 0 45 6q56 15 78 94q17 66 20 299q0 131 -4 197q-4 107 -35 155q-35 53 -104 53q-36 0 -66 -18q-13 -8 -23 -19.5t-16.5 -22.5t-11.5 -28.5l-8 -28t-4.5 -31.5t-2 -29t-1 -30t-0.5 -26q-2 -47 -2 -141z" />
<glyph unicode="e" d="M74 604q0 97 8 176q10 85 30 128.5t58 74.5q70 57 188 57q63 0 109.5 -11t87.5 -44q40 -28 61 -72q8 -17 14.5 -35.5t10.5 -41.5t6 -39.5t3 -44t1 -40v-42.5v-37v-152h-411q-2 -45 -2 -90t2 -90q3 -68 10 -96q26 -90 123 -90q49 0 76 22q31 23 41 63q9 34 8 94v23h153 v-41q-1 -28 -1 -47q-2 -32 -15.5 -76t-42.5 -79q-76 -92 -225 -92q-186 0 -256 137q-10 19 -16 39t-10 34t-5.5 45.5t-2 44.5t-1 62t-0.5 70q-2 63 -2 190zM240 612h258v43q0 80 -2 119q-7 141 -127 141q-80 0 -109 -65q-14 -31 -17 -69.5t-3 -125.5v-43z" />
<glyph unicode="f" horiz-adv-x="468" d="M10 901v123h121v111q0 56 1 81.5t10.5 71t29.5 76.5q55 88 201 88q51 0 86 -12v-142q-46 13 -66 13q-38 0 -63 -21q-19 -16 -27 -41t-9 -45t-1 -78v-102h166v-123h-166v-901h-162v901h-121z" />
<glyph unicode="g" horiz-adv-x="768" d="M72 565q0 74 2 111q1 59 3.5 92t14 84.5t33.5 87.5q29 52 83.5 77t119.5 25q43 0 77.5 -10t58 -29t35.5 -33t27 -36v90h152v-973v-110q-3 -101 -33.5 -153.5t-85.5 -84.5q-82 -47 -199 -47q-123 0 -198 65q-43 37 -60 78q-20 49 -20 119h151q0 -43 13 -72 q11 -22 43 -40.5t80 -18.5q55 0 90 23q10 7 18 14.5t13.5 18t10 18.5t7 21.5t4 20t2 22.5t0.5 21v22v20v118l-18 -24q-71 -88 -189 -88q-121 0 -182 90q-24 35 -36.5 91t-13.5 89t-1 98q0 34 -1 101.5t-1 101.5zM240 453q0 -127 4 -193q0 -1 1 -12t2 -18t4 -20.5t8 -23.5 t13.5 -22t20.5 -21q36 -24 78 -24q52 0 82.5 26.5t42.5 55.5q8 18 13.5 41t7 53t2 49t0 54.5t-0.5 43.5v58q0 153 -4 198v20q0 76 -14 116q-14 43 -48 68.5t-79 25.5q-32 0 -70 -23q-40 -31 -51.5 -97t-11.5 -196v-159z" />
<glyph unicode="h" horiz-adv-x="768" d="M90 0v1446h162v-514q0 1 7.5 10t10.5 13t12 14t15.5 15.5t17.5 14.5t21 14.5t23.5 11t27.5 9.5q24 8 72 8q73 0 125 -36q24 -16 41 -36.5t27 -49.5t15.5 -48t8 -59t2.5 -52.5v-55.5v-705h-162v616q0 99 -2 148q-5 88 -41 119q-30 30 -84 30q-56 0 -90 -34 q-18 -19 -28 -41.5t-14 -63.5t-4.5 -65.5t-0.5 -94.5v-614h-162z" />
<glyph unicode="i" horiz-adv-x="342" d="M90 0v1024h162v-1024h-162zM90 1204v211h162v-211h-162z" />
<glyph unicode="j" horiz-adv-x="342" d="M-96 -342l2 135q2 0 32 -0.5t43.5 0t35.5 5.5t36 14q26 15 33 63q4 40 4 184v965h162v-954q0 -109 -2 -164q0 -54 -12 -101q-22 -76 -81 -112.5t-186 -36.5q-11 0 -33 1t-34 1zM90 1202v213h162v-213h-162z" />
<glyph unicode="k" d="M90 0v1446h162v-887l303 465h188l-276 -397l262 -627h-174l-199 475l-104 -143v-332h-162z" />
<glyph unicode="l" horiz-adv-x="342" d="M88 0v1446h166v-1446h-166z" />
<glyph unicode="m" horiz-adv-x="1193" d="M90 0v1024h154v-100q24 32 45 53q70 65 174 65q114 0 176 -79q3 -3 27 -39q8 16 43 51q67 67 168 67q77 0 129 -36q61 -43 80.5 -105t19.5 -153v-748h-168v672q0 137 -16 174q-32 69 -111 69q-54 0 -82 -28q-12 -11 -20.5 -24t-14 -30.5t-9 -30t-4.5 -35t-1.5 -32 t0 -34.5t0.5 -29v-672h-166v672v29v27.5v24t-0.5 23t-1.5 20t-2.5 19.5t-3.5 16t-5 16t-7 13q-22 35 -53.5 46t-55.5 9q-56 0 -88 -32q-28 -30 -35.5 -75t-7.5 -140v-668h-164z" />
<glyph unicode="n" horiz-adv-x="768" d="M90 0v1024h156v-94q4 5 11 13.5t13 15.5t11 12q82 71 186 71q122 0 176 -88q23 -37 29 -84t6 -149v-721h-166v750q0 163 -121 163q-91 0 -123 -86q-3 -8 -5 -16t-3.5 -14.5t-2.5 -17.5t-2 -17t-1 -21.5v-21.5v-27.5v-29.5v-662h-164z" />
<glyph unicode="o" d="M74 330v133q0 178 4 266q4 168 74 240q66 73 219 73q57 0 102.5 -14t73.5 -33t49 -51.5t31 -56.5t16 -61.5t6.5 -53.5t1.5 -45q2 -56 2 -112.5t-2 -112.5q0 -131 -4 -197q-3 -76 -10 -115q-5 -32 -14.5 -58.5t-30 -55.5t-49.5 -48.5t-76.5 -32.5t-108.5 -13 q-175 0 -241 112q-27 48 -35 104t-8 132zM246 559q0 -41 1 -124t1 -124q0 -98 10 -129q21 -71 100 -71q52 0 77.5 26.5t35.5 79.5q10 59 10 287q0 149 -2 225q-1 30 -2 48t-7.5 47t-17.5 45t-32 28.5t-51 11.5q-92 0 -113 -96q-10 -43 -10 -254z" />
<glyph unicode="p" horiz-adv-x="768" d="M90 -326v1350h162l2 -98q16 22 27.5 35t37.5 35.5t62 34t80 11.5q79 0 137 -45q74 -60 88 -172q8 -65 8 -235q0 -142 -6 -283q-6 -150 -37 -211q-64 -114 -200 -114q-95 0 -156 59q-25 25 -37 45v-412h-168zM260 512q0 -137 4 -205q0 -85 29 -135q36 -68 108 -68 q35 0 59.5 17.5t33 33.5t12.5 33q11 39 14 197q4 98 4 150q0 110 -2 165q0 38 -2 56q-3 66 -32 110.5t-91 44.5q-95 0 -123 -112q-3 -10 -5 -20.5t-3.5 -24t-2.5 -24.5t-1.5 -30t-1 -30t-0.5 -35.5v-36.5v-42v-44z" />
<glyph unicode="q" horiz-adv-x="768" d="M74 514q0 35 1 106t1 107q2 72 12 123t41 94q73 98 190 98q43 0 78 -12t59 -35t35.5 -38t25.5 -37q1 -1 1.5 -2.5t1.5 -2.5v109h158v-1350h-162v428q-16 -28 -33 -45q-63 -75 -172 -75q-79 0 -137 47q-34 28 -55 63.5t-29 78t-10.5 77.5t-3.5 85v19q-2 55 -2 162z M244 500q0 -99 2 -148q1 -11 1.5 -45.5t2.5 -54.5q11 -141 121 -141q71 0 112 61q15 22 23 66q12 69 12 218v62q0 27 -1 57.5t-2.5 67.5t-2.5 57q-6 101 -16 129q-11 30 -42 57q-31 25 -81 25h-4q-52 0 -81.5 -31t-37.5 -83q-6 -47 -6 -297z" />
<glyph unicode="r" horiz-adv-x="512" d="M90 0v1024h158v-193q23 55 47 93q35 53 89 85.5t114 32.5h26v-172q-77 0 -116 -10q-31 -8 -55 -24.5t-40 -33t-27 -47t-16.5 -48.5t-8.5 -57t-3.5 -53.5t0 -57.5t0.5 -50v-489h-168z" />
<glyph unicode="s" horiz-adv-x="641" d="M35 354h158q0 -32 4 -102q0 -51 14 -78q33 -59 108 -59q54 0 86.5 34.5t32.5 88.5q0 42 -16 76.5t-33 51.5t-57 52l-127 110q-52 46 -77.5 74t-45 74t-19.5 104q0 111 54 181q27 35 88 61q58 20 121 20q129 0 192 -63q29 -32 41 -70q13 -36 17 -73t4 -113h-146 q0 89 -8 115q-22 73 -100 73q-17 0 -33 -4t-34.5 -15t-30 -35t-11.5 -58q0 -29 12 -54q6 -12 14.5 -24.5t16 -21t22 -22t20 -18.5t22.5 -19.5t20 -16.5l117 -97q7 -6 19 -16.5t22 -19.5t18 -17q84 -90 84 -211q0 -63 -17 -112t-46 -79t-55 -46.5t-56 -26.5q-51 -16 -121 -16 q-157 0 -223 94q-31 42 -40 99.5t-11 178.5z" />
<glyph unicode="t" horiz-adv-x="468" d="M12 901v123h127v274h164v-274h152v-123h-152v-661q0 -55 19 -86q22 -33 75 -33q29 0 58 8l-2 -133q-43 -14 -93 -14q-121 0 -174 51q-25 24 -37.5 65.5t-14 69.5t-1.5 77v13q0 12 1 38t1 38v567h-123z" />
<glyph unicode="u" horiz-adv-x="768" d="M90 356v25v643h164v-672q0 -57 2 -86q0 -63 14 -94q30 -68 107 -68q47 0 80 27q37 29 48 77t11 148v668h162v-1024h-158l-2 94q-17 -22 -29.5 -34.5t-39.5 -34t-64.5 -32.5t-83.5 -11q-78 0 -133 45q-54 44 -66 110.5t-12 218.5z" />
<glyph unicode="v" horiz-adv-x="641" d="M0 1024h178l135 -840l150 840h178l-235 -1024h-187z" />
<glyph unicode="w" horiz-adv-x="1067" d="M0 1024h178l109 -877l133 877h221l133 -864l121 864h172l-201 -1024h-196l-140 862l-141 -862h-201z" />
<glyph unicode="x" horiz-adv-x="681" d="M0 0l246 549l-213 475h190l111 -336l123 336h184l-215 -475l256 -549h-186l-162 406l-154 -406h-180z" />
<glyph unicode="y" horiz-adv-x="681" d="M12 1024h176l162 -823l131 823h174l-176 -893q-4 -19 -11 -56t-11 -55q-13 -69 -21.5 -106.5t-33.5 -94t-60 -91.5q-39 -38 -84 -50t-111 -12h-106v141q27 -1 54.5 -1t54.5 1q21 2 34.5 6t35 15t33 36t11.5 62q0 39 -20 125z" />
<glyph unicode="z" horiz-adv-x="598" d="M18 0v135l385 750h-333v139h505v-139l-382 -750h382v-135h-557z" />
<glyph unicode="{" d="M113 489v142q58 0 94 24q28 18 45 45t23.5 65.5t8 63.5t1.5 69v5.5v5.5v183q0 57 3.5 97.5t15.5 86t33.5 77t59.5 59t92 42.5q57 16 181 16v-137l-25 -2q-43 -3 -74.5 -13t-51 -29.5t-31.5 -39t-17 -54.5t-6.5 -62t-1.5 -74v-74v-38q0 -34 0.5 -67.5t-3 -68.5t-9.5 -67 t-19 -61.5t-31.5 -53t-47.5 -41t-66 -25.5v-8q29 -6 53 -17.5t41.5 -25.5t31 -36t22.5 -40.5t15 -48t8.5 -49t4 -52.5t1.5 -51.5t-0.5 -52t-0.5 -47.5v-100q0 -48 3.5 -81t14.5 -65t31 -51t53 -32t80 -17l25 -2v-137h-11q-104 0 -153 12q-49 11 -86.5 31t-61 49t-39 59.5 t-22.5 73t-9.5 79t-2.5 87.5v152q0 42 -0.5 61t-3.5 56t-9 55.5t-18.5 44.5t-30.5 39.5t-46 25t-64 14.5z" />
<glyph unicode="|" horiz-adv-x="468" d="M152 -512v2044h165v-2044h-165z" />
<glyph unicode="}" d="M113 -213l24 2q43 3 74 13t50.5 29.5t31 39t16.5 54t6.5 61.5t1.5 73q0 35 5 205q2 38 4.5 64.5t9 61t18 58.5t29.5 47.5t46 38t65 21.5v8q-9 4 -31 11t-33 14q-21 12 -37.5 28t-28 37.5t-20 40.5t-13.5 48.5t-8.5 48.5t-4.5 52.5t-1.5 48.5t0 49.5t0.5 43.5v100 q0 61 -6 100t-24.5 73t-55 51.5t-94.5 21.5l-24 2v137q65 -1 105 -4.5t90 -17t81 -36.5t58 -65.5t40 -103.5q6 -31 9 -76.5t3 -78.5t-0.5 -88.5t-0.5 -71.5v-10q0 -34 0.5 -52.5t3 -51.5t9 -54t17.5 -46t29 -42.5t43 -28.5q19 -8 70 -12v-142q-35 0 -62.5 -9.5t-45.5 -23.5 t-30.5 -38.5t-19 -45.5t-10 -53.5t-4 -54t-0.5 -55.5v-162q0 -54 -1.5 -86t-7.5 -77t-19 -74t-35 -59.5t-58 -51t-84 -33.5q-21 -6 -47 -9t-40.5 -4t-50.5 -2t-42 -1v137z" />
<glyph unicode="~" horiz-adv-x="1157" d="M131 612q52 59 88 90q69 56 160 56q70 0 160 -41l110 -49q77 -35 123 -35q43 0 83.5 24t92.5 82l78 -123q-36 -42 -59.5 -63t-57.5 -41q-66 -41 -137 -41q-70 0 -186 53l-54 25q-95 45 -155 45q-43 0 -78 -20.5t-78 -69.5l-14 -17z" />
<glyph unicode="&#xa1;" horiz-adv-x="425" d="M84 0v457l43 596h92l39 -596v-457h-174zM84 1206v240h174v-240h-174z" />
<glyph unicode="&#xa2;" d="M72 426q0 48 3 123.5t3 95.5q5 135 6 143q0 31 14 80q22 78 80 123q42 35 131 51v134h111v-134q107 -13 164 -84q11 -13 20 -28.5t15 -34t11 -33.5t7.5 -37t4.5 -35t2.5 -37.5t0.5 -33.5v-33.5v-28.5h-153v33q0 50 -5 96q-4 68 -29 98q-32 39 -96 38q-99 0 -116 -121 q-4 -28 -7 -179t-3 -210q0 -186 8 -213q12 -42 39 -66q31 -27 75 -27q40 0 69 17.5t40 42t18 52t4.5 46.5t-0.5 26v1q0 11 1.5 31t1.5 32v21h153q0 -140 -17.5 -216t-74.5 -122q-21 -17 -54.5 -31t-54 -19t-24.5 -5v-150h-111v150q-24 3 -42 6t-50 16.5t-55 33t-45.5 57 t-32.5 87.5q-7 37 -10 125q-2 45 -2 119z" />
<glyph unicode="&#xa3;" horiz-adv-x="937" d="M23 160q0 29 10 59q13 36 36.5 60.5t50.5 34.5t46.5 14t36.5 4q11 0 21.5 -1t19 -2.5t18 -4.5t16 -5t14.5 -6t12.5 -6.5t11 -7t9.5 -6t8.5 -5.5t6.5 -5q8 75 -2 147t-51 195h-203v153h152q-31 87 -41.5 120.5t-20.5 92.5t-10 127q0 200 108 283q85 67 250 67 q187 0 262 -118q31 -47 43.5 -116t12.5 -185q0 -34 -2 -52h-179v38q0 64 -1 94t-6.5 69.5t-19.5 62.5t-38 39q-30 21 -86 21q-83 0 -122.5 -57t-39.5 -144q0 -109 47 -256q13 -39 37 -86h275v-153h-230q16 -64 22.5 -92t14 -78.5t6.5 -94.5q0 -76 -29 -161q3 -2 13 -9.5 t16 -9.5q20 -12 53 -23.5t54 -11.5q33 0 55 17.5t29 34.5q22 43 22 157q0 62 -6 123h166q3 -115 -2 -205q-8 -117 -43 -178q-63 -114 -205 -114q-25 0 -49.5 4t-46 12t-39 16t-35.5 19.5t-27.5 18t-23 17t-14.5 11.5q-4 -4 -11 -11.5t-13 -13.5t-11 -10q-75 -59 -164 -59 q-46 0 -78 14q-48 20 -77 64t-29 98zM152 172q2 -16 13 -29.5t36 -13.5q55 0 86 51q-49 33 -82 33q-28 0 -40.5 -13t-12.5 -28z" />
<glyph unicode="&#xa4;" horiz-adv-x="1284" d="M84 223l147 152q-57 90 -78.5 160t-21.5 161q0 92 22 162.5t78 155.5l-143 151l107 113l143 -150q79 57 149.5 81t155.5 24q162 0 301 -105l148 152l108 -115l-145 -153q54 -88 76 -158.5t22 -155.5q0 -174 -100 -323l145 -156l-108 -113l-148 156q-78 -57 -148.5 -81.5 t-156.5 -24.5q-85 0 -148.5 22.5t-150.5 83.5l-148 -151zM297 696q0 -163 100.5 -273t249.5 -110q142 0 240 109.5t98 269.5q0 166 -97 275.5t-245 109.5q-147 0 -246.5 -109.5t-99.5 -271.5z" />
<glyph unicode="&#xa5;" horiz-adv-x="811" d="M0 1446h195l211 -733l212 733h193l-254 -711h178v-119h-221l-20 -55v-55h241v-117h-241v-389h-181v389h-239v117h239v55l-18 55h-221v119h176z" />
<glyph unicode="&#xa6;" horiz-adv-x="468" d="M152 389h165v-899h-165v899zM152 631v903h165v-903h-165z" />
<glyph unicode="&#xa7;" horiz-adv-x="854" d="M45 657q0 80 34.5 141t102.5 124q-80 85 -80 215q0 167 80.5 245t249.5 78q163 0 238 -71t75 -230q0 -53 -2 -80h-163v8q0 32 -0.5 48.5t-3 45t-8.5 44t-17 35.5t-27 30t-41 17.5t-57 7.5q-76 0 -115 -41.5t-39 -118.5q0 -19 3.5 -35.5t7 -29.5t14 -26.5t15.5 -21.5 t21.5 -19t22 -16t27 -15t27 -12.5t30.5 -13t29 -12.5q98 -40 147 -63q87 -42 134 -99t47 -145q0 -83 -31.5 -142t-99.5 -136q51 -59 70.5 -111t19.5 -131q0 -180 -90.5 -260t-268.5 -80q-172 0 -251.5 84.5t-79.5 253.5v78h178v-76q0 -85 39 -134.5t123 -49.5t128 45t44 129 q0 70 -25.5 108.5t-87.5 73.5q-35 19 -151.5 68t-157.5 79q-58 42 -84.5 91.5t-26.5 119.5zM186 709q0 -65 56 -111q23 -20 88.5 -51.5t145 -66.5t102.5 -46q75 75 75 154q0 22 -6.5 41t-15.5 33.5t-25 28.5t-30 23.5t-36 20t-36 16.5t-37.5 15.5t-34.5 13.5q-95 40 -166 72 q-40 -38 -60 -69t-20 -74z" />
<glyph unicode="&#xa8;" horiz-adv-x="468" d="M-4 1153v211h162v-211h-162zM313 1153v211h160v-211h-160z" />
<glyph unicode="&#xa9;" horiz-adv-x="1703" d="M123 723q0 200 97 367.5t264.5 264.5t367.5 97q201 0 368.5 -96.5t264 -263.5t96.5 -367q0 -152 -56.5 -287.5t-154 -233t-233 -154t-287.5 -56.5q-198 0 -365.5 97t-264.5 264.5t-97 367.5zM197 721q0 -180 87 -331.5t237.5 -239t328.5 -87.5q134 0 256 52t210 140 t139.5 209.5t51.5 256.5q0 137 -51 259.5t-138.5 210.5t-209 139.5t-256.5 51.5q-133 0 -254.5 -52t-209 -140.5t-139.5 -211t-52 -257.5zM596 541v354q0 116 29 178q60 129 260 129q122 0 190 -53q43 -34 58.5 -85.5t15.5 -154.5v-67h-148v63q0 76 -12 113q-21 63 -110 63 q-73 0 -101 -45t-28 -164v-309q0 -119 28 -164t101 -45q61 0 88 27q15 12 22 37q12 40 12 112v58h148v-60q0 -128 -25 -182t-87.5 -83.5t-151.5 -29.5q-136 0 -211 66q-43 37 -60.5 92.5t-17.5 149.5z" />
<glyph unicode="&#xaa;" horiz-adv-x="468" d="M31 967q0 31 6.5 56.5t14 41.5t28 36t32.5 29.5t46 33.5l51 36q15 10 37.5 28t32.5 25v14.5v17t-1 15.5t-3 16.5t-6.5 13.5t-10.5 12t-15.5 7t-21.5 3t-21 -2t-15.5 -6.5t-11.5 -10t-7.5 -12.5t-4 -13.5t-2 -13.5t-0.5 -11t1 -9v-4v-51h-109v61q0 64 10 86q40 92 164 92 q37 0 66 -8.5t47 -20t31 -31t19 -34t9 -37.5t3.5 -33t0.5 -28v-353q0 -64 43 -110h-155v43q-49 -53 -109 -53q-74 -1 -111.5 50t-37.5 124zM152 965q0 -4 0.5 -9t3.5 -17t8.5 -21.5t17 -17t27.5 -7.5q77 0 76 149v7v84q-15 -12 -42 -32t-38.5 -30t-26.5 -26.5t-20.5 -35.5 t-5.5 -44z" />
<glyph unicode="&#xab;" d="M45 487v177l287 319v-238l-152 -170l152 -172v-239zM379 487v177l285 319v-238l-152 -170l152 -172v-239z" />
<glyph unicode="&#xac;" horiz-adv-x="1144" d="M125 532v150h848v-528h-174v378h-674z" />
<glyph unicode="&#xad;" horiz-adv-x="544" d="M51 518v160h443v-160h-443z" />
<glyph unicode="&#xae;" horiz-adv-x="1703" d="M123 723q0 200 97 367.5t264.5 264.5t367.5 97q201 0 368.5 -96.5t264 -263.5t96.5 -367q0 -152 -56.5 -287.5t-154 -233t-233 -154t-287.5 -56.5q-198 0 -365.5 97t-264.5 264.5t-97 367.5zM197 721q0 -180 87 -331.5t237.5 -239t328.5 -87.5q134 0 256 52t210 140 t139.5 209.5t51.5 256.5q0 137 -51 259.5t-138.5 210.5t-209 139.5t-256.5 51.5q-133 0 -254.5 -52t-209 -140.5t-139.5 -211t-52 -257.5zM614 256v920h195q108 0 157.5 -7.5t84.5 -29.5q46 -29 65 -80.5t19 -145.5q0 -121 -33.5 -176.5t-122.5 -83.5l195 -397h-164 l-181 387h-67v-387h-148zM762 760h47q109 0 143.5 29.5t34.5 123.5q0 91 -33 121q-17 15 -46 19t-105 4h-41v-297z" />
<glyph unicode="&#xaf;" horiz-adv-x="468" d="M12 1178v131h445v-131h-445z" />
<glyph unicode="&#xb0;" d="M33 1217q0 137 96.5 233t232.5 96q139 0 234.5 -95.5t95.5 -233.5q0 -137 -96.5 -234.5t-233.5 -97.5t-233 97.5t-96 234.5zM201 1221q0 -66 47.5 -114t113.5 -48q68 0 115 47.5t47 114.5t-47 114t-115 47t-114.5 -47t-46.5 -114z" />
<glyph unicode="&#xb1;" horiz-adv-x="1144" d="M172 0v150h803v-150h-803zM172 606v150h317v348h168v-348h318v-150h-318v-346h-168v346h-317z" />
<glyph unicode="&#xb2;" horiz-adv-x="512" d="M45 543v123l182 309q7 12 25 41.5t22 37t15.5 29t13.5 31.5t7 29t6 37.5t1 42.5v6q0 100 -69 100q-62 0 -64 -84v-18v-6v-115h-129v123q0 84 19.5 130t68.5 75q40 24 109 24q87 -2 143 -59.5t56 -184.5q0 -59 -16 -116.5t-30 -84.5t-38 -67l-170 -280h264v-123h-416z" />
<glyph unicode="&#xb3;" horiz-adv-x="512" d="M41 745v89h129v-48q0 -3 -0.5 -20.5t0 -25t2 -23.5t6.5 -24t12.5 -18t20 -14t29.5 -4q24 0 40.5 8.5t24.5 18.5t12 36t4.5 41t0.5 53v24q0 59 -19 88.5t-80 29.5q-9 0 -25 -1t-26 -1v127q8 0 22.5 -1t22.5 -1q47 0 70.5 22.5t23.5 90.5q0 34 -0.5 48.5t-3.5 37t-9.5 31.5 t-19.5 16.5t-32 7.5q-63 0 -62 -111v-2.5v-2.5v-48h-129v58q0 79 13 118q38 113 182 113q41 0 74 -10.5t53 -28t35 -40t20.5 -46t10 -46t3.5 -40t0 -28.5v-7q0 -108 -24 -145q-16 -25 -47 -45q29 -14 47 -35q37 -47 37 -217q0 -61 -13 -104q-13 -37 -36 -64t-45 -40 t-47.5 -20.5t-38 -8.5t-23.5 -1q-62 -2 -115 21q-55 28 -77.5 69.5t-22.5 122.5z" />
<glyph unicode="&#xb4;" horiz-adv-x="468" d="M68 1155l108 219h225l-200 -219h-133z" />
<glyph unicode="&#xb5;" horiz-adv-x="768" d="M90 -326v1350h164v-709q0 -106 16 -147q27 -64 109 -64q72 0 104.5 55.5t32.5 178.5v686h162v-858q0 -70 10 -103.5t39 -62.5h-207v96q-44 -67 -75.5 -90.5t-77.5 -23.5q-34 0 -59 12t-54 41v-361h-164z" />
<glyph unicode="&#xb6;" horiz-adv-x="1294" d="M176 1036q0 195 121 307q63 59 141 81t224 22h360v-129h-70v-1659h-118v1659h-248v-1659h-119v995q-291 74 -291 383z" />
<glyph unicode="&#xb7;" horiz-adv-x="342" d="M84 428v242h174v-242h-174z" />
<glyph unicode="&#xb8;" horiz-adv-x="468" d="M43 -403l27 49q1 0 16.5 -6.5t26.5 -10.5t31 -8t38 -4q43 0 81 29t38 73q0 33 -23.5 56t-56.5 22q-26 0 -61 -26l-43 16l76 223h57l-57 -162q61 21 92 21q60 0 100.5 -36t40.5 -95q0 -38 -27 -86q-63 -96 -196 -96q-38 0 -71 7.5t-89 33.5z" />
<glyph unicode="&#xb9;" horiz-adv-x="512" d="M53 1229v112q3 0 21 -0.5t24.5 0t23 1.5t24.5 3.5t21 7t20 12t14.5 17t10.5 23.5t3 31v10h121v-903h-139v686h-144z" />
<glyph unicode="&#xba;" horiz-adv-x="468" d="M47 1040v95q0 82 2 131q2 22 2.5 29t5 32.5t11 38t20.5 33.5t32.5 31.5t47.5 19t65 8.5q47 0 81.5 -12t54 -32.5t32.5 -48t16 -58t5 -63t0 -62.5v-33v-14q0 -85 -2 -134q-3 -83 -25 -124q-43 -85 -164 -82q-72 3 -104 22q-52 30 -66 76t-14 147zM178 1137q0 -199 12 -215 q6 -10 9 -13.5t12.5 -8.5t21.5 -5t21.5 3.5t15 9.5t9.5 14.5t5.5 14.5t3.5 13l1 6l1 32q1 33 2 77t1 72q0 21 -1 60t-1 60q0 20 -1 31t-5.5 28.5t-17.5 26.5t-34 9q-14 0 -24 -5.5t-13.5 -11t-9.5 -16.5q-8 -12 -8 -182z" />
<glyph unicode="&#xbb;" d="M61 164v239l152 172l-152 170v238l287 -319v-177zM393 164v239l152 172l-152 170v238l287 -319v-177z" />
<glyph unicode="&#xbc;" horiz-adv-x="1280" d="M53 1229v112q3 0 21 -0.5t24.5 0t23 1.5t24.5 3.5t21 7t20 12t14.5 17t10.5 23.5t3 31v10h121v-903h-139v686h-144zM238 0l710 1446h94l-704 -1446h-100zM805 197v137l180 571h178v-588h78v-120h-78v-197h-131v197h-227zM920 317h112l2 377z" />
<glyph unicode="&#xbd;" horiz-adv-x="1280" d="M53 1229v112q3 0 21 -0.5t24.5 0t23 1.5t24.5 3.5t21 7t20 12t14.5 17t10.5 23.5t3 31v10h121v-903h-139v686h-144zM209 0l713 1446h92l-705 -1446h-100zM813 0v123l182 309q7 11 22.5 37t20 33.5t15 27t13 27.5t8 24.5t7 30t3 31.5t1.5 39v6q0 52 -17 75t-52 23 q-23 0 -37 -9.5t-19.5 -28.5t-6.5 -31t-1 -33v-6v-115h-129v123q0 84 19.5 130t68.5 75q40 24 109 24q88 -2 143.5 -59t55.5 -184q0 -59 -16 -116.5t-30 -85t-38 -67.5l-170 -280h264v-123h-416z" />
<glyph unicode="&#xbe;" horiz-adv-x="1280" d="M41 745v89h129v-48q0 -3 -0.5 -20.5t0 -25t2 -23.5t6.5 -24t12.5 -18t20 -14t29.5 -4q24 0 40.5 8.5t24.5 18.5t12 36t4.5 41t0.5 53v24q0 59 -19 88.5t-80 29.5q-9 0 -25 -1t-26 -1v127q8 0 22.5 -1t22.5 -1q47 0 70.5 22.5t23.5 90.5q0 34 -0.5 48.5t-3.5 37t-9.5 31.5 t-19.5 16.5t-32 7.5q-63 0 -62 -111v-2.5v-2.5v-48h-129v58q0 79 13 118q38 113 182 113q41 0 74 -10.5t53 -28t35 -40t20.5 -46t10 -46t3.5 -40t0 -28.5v-7q0 -108 -24 -145q-16 -25 -47 -45q29 -14 47 -35q37 -47 37 -217q0 -61 -13 -104q-13 -37 -36 -64t-45 -40 t-47.5 -20.5t-38 -8.5t-23.5 -1q-62 -2 -115 21q-55 28 -77.5 69.5t-22.5 122.5zM270 0l713 1446h92l-704 -1446h-101zM805 197v137l180 571h178v-588h78v-120h-78v-197h-131v197h-227zM920 317h112l2 377z" />
<glyph unicode="&#xbf;" horiz-adv-x="811" d="M74 295v8v10q0 113 8 166q5 32 18 64t23 49.5t45.5 73.5t52.5 84q35 58 37 63q11 23 17 38.5t11 45.5t5 70q0 15 -1 46t-1 46h135v-80q0 -81 -4 -115.5t-26.5 -93t-76.5 -156.5q-41 -79 -43 -84q-16 -36 -20 -66t-6 -108q0 -10 -1 -30.5t-1 -30.5q0 -33 10 -62 q12 -35 46.5 -63.5t94.5 -28.5q42 0 78 21q37 21 47 56t10 89v187h160v-207q0 -109 -30 -170q-34 -69 -111 -103t-162 -34q-98 0 -174 40q-143 77 -141 275zM268 1206v240h174v-240h-174z" />
<glyph unicode="&#xc0;" horiz-adv-x="811" d="M0 0l311 1446h181l319 -1446h-188l-52 279h-335l-50 -279h-186zM166 1784h223l109 -219h-133zM266 434h275l-142 744z" />
<glyph unicode="&#xc1;" horiz-adv-x="811" d="M0 0l311 1446h181l319 -1446h-188l-52 279h-335l-50 -279h-186zM266 434h275l-142 744zM315 1565l109 219h223l-201 -219h-131z" />
<glyph unicode="&#xc2;" horiz-adv-x="811" d="M0 0l311 1446h181l319 -1446h-188l-52 279h-335l-50 -279h-186zM143 1565l207 219h133l203 -219h-180l-109 123l-116 -123h-138zM266 434h275l-142 744z" />
<glyph unicode="&#xc3;" horiz-adv-x="811" d="M0 0l311 1446h181l319 -1446h-188l-52 279h-335l-50 -279h-186zM150 1575q0 92 55 143q24 24 51 33q18 8 47 8q35 0 63.5 -8t92.5 -35q53 -20 78 -20q10 0 17.5 2t13 5t9.5 8.5t6.5 9.5t4 10.5t2.5 10t1.5 9t0.5 6.5h74q-2 -31 -13 -69q-18 -52 -54 -82.5t-87 -30.5 q-15 0 -31.5 3t-36 9t-31.5 10.5t-34 13t-29 11.5l-12 4q-13 4 -30 8t-29 4q-29 0 -41 -16t-17 -47h-71zM266 434h275l-142 744z" />
<glyph unicode="&#xc4;" horiz-adv-x="811" d="M0 0l311 1446h181l319 -1446h-188l-52 279h-335l-50 -279h-186zM139 1565v219h170v-219h-170zM266 434h275l-142 744zM504 1565v219h170v-219h-170z" />
<glyph unicode="&#xc5;" horiz-adv-x="811" d="M0 0l311 1446h181l319 -1446h-188l-52 279h-335l-50 -279h-186zM242 1696q0 68 49 116t117 48q67 0 115 -48t48 -116t-48 -116t-117 -48q-68 0 -116 48t-48 116zM266 434h275l-142 744zM332 1696q0 -29 22.5 -51.5t53.5 -22.5t52 22t21 54q0 31 -21.5 52.5t-53.5 21.5 q-30 0 -52.5 -22.5t-21.5 -53.5z" />
<glyph unicode="&#xc6;" horiz-adv-x="1280" d="M0 0l510 1446h702v-162h-426v-430h365v-164h-365v-528h453v-162h-631v317h-313l-107 -317h-188zM348 473h260v791z" />
<glyph unicode="&#xc7;" horiz-adv-x="854" d="M90 731q0 140 0.5 186t3.5 135t11 137t22 85q30 82 96 129q90 65 230 65q112 0 196 -55q72 -50 96.5 -123t24.5 -209q0 -57 -2 -90h-166v53v24q0 53 -1 77.5t-6.5 58t-19 53.5t-36.5 37q-31 23 -86 23q-43 0 -75 -12.5t-49.5 -35t-26 -41.5t-15.5 -44q-19 -81 -19 -465 q0 -132 4 -274.5t9 -170.5q0 -3 2 -14.5t8.5 -30.5t15.5 -32q48 -66 142 -66q50 0 90 25q24 17 38.5 39t20.5 54.5t7.5 53t2.5 62.5q2 33 2 90v53h168v-47q0 -153 -7.5 -222.5t-41.5 -127.5q-22 -38 -51 -60.5t-76 -42.5q-60 -24 -141 -31l-25 3l-41 -119q50 20 92 20 q58 0 99 -36t41 -95q0 -29 -12.5 -59t-37.5 -58t-68.5 -46t-98.5 -19q-15 0 -29 1t-25 2.5t-24 4.5t-20.5 5.5t-19.5 7t-16.5 6.5t-16 7.5t-13.5 6.5l26 49q60 -29 111 -29q58 0 88.5 33.5t30.5 67.5q0 33 -23.5 56.5t-56.5 23.5q-35 0 -62 -27l-41 14l60 183 q-77 14 -122 38q-92 50 -134 154q-13 31 -20 80.5t-9.5 146.5t-3 143t-0.5 189z" />
<glyph unicode="&#xc8;" horiz-adv-x="811" d="M102 0v1446h637v-162h-456v-430h399v-164h-399v-528h471v-162h-652zM166 1784h223l109 -219h-133z" />
<glyph unicode="&#xc9;" horiz-adv-x="811" d="M102 0v1446h637v-162h-456v-430h399v-164h-399v-528h471v-162h-652zM315 1565l109 219h223l-201 -219h-131z" />
<glyph unicode="&#xca;" horiz-adv-x="811" d="M102 0v1446h637v-162h-456v-430h399v-164h-399v-528h471v-162h-652zM133 1565l207 219h133l201 -219h-178l-109 123l-119 -123h-135z" />
<glyph unicode="&#xcb;" horiz-adv-x="811" d="M102 0v1446h637v-162h-456v-430h399v-164h-399v-528h471v-162h-652zM139 1565v219h170v-219h-170zM504 1565v219h170v-219h-170z" />
<glyph unicode="&#xcc;" horiz-adv-x="382" d="M-47 1784h223l109 -219h-133zM102 0v1446h179v-1446h-179z" />
<glyph unicode="&#xcd;" horiz-adv-x="382" d="M102 0v1446h179v-1446h-179zM102 1565l109 219h223l-201 -219h-131z" />
<glyph unicode="&#xce;" horiz-adv-x="382" d="M-82 1565l209 219h133l201 -219h-178l-109 123l-119 -123h-137zM102 0v1446h179v-1446h-179z" />
<glyph unicode="&#xcf;" horiz-adv-x="382" d="M-74 1565v219h170v-219h-170zM102 0v1446h179v-1446h-179zM291 1565v219h170v-219h-170z" />
<glyph unicode="&#xd0;" horiz-adv-x="894" d="M2 727v131h100v588h273q144 0 208 -16q169 -41 208 -216q9 -42 12 -192q2 -74 2 -201v-313q0 -150 -4 -199q-3 -47 -15 -86q-49 -169 -213 -211q-54 -12 -200 -12h-271v727h-100zM283 160h88q129 0 177.5 23.5t67.5 111.5q13 66 13 385q0 438 -19 496q-13 45 -41 67 q-28 23 -72 30t-122 7h-92v-422h180v-131h-180v-567z" />
<glyph unicode="&#xd1;" horiz-adv-x="894" d="M102 0v1446h248l293 -1266l-25 1266h175v-1446h-254l-283 1253l25 -1253h-179zM190 1575v9q1 9 1.5 13t2 14t3.5 17l5 17.5t7 19t9.5 18t13 18.5t16.5 17q24 24 51 33q18 8 47 8q34 0 63.5 -8.5t92.5 -34.5q53 -20 78 -20q10 0 17.5 2t13 5t9.5 8.5t6.5 9.5t4 10.5 t2.5 10t1.5 9t0.5 6.5h74q-4 -40 -13 -69q-15 -51 -52.5 -82t-88.5 -31q-19 0 -43 5.5t-38.5 10.5t-45.5 17t-37 14l-12 4q-12 4 -28.5 8t-28.5 4q-16 0 -27 -4.5t-17 -14.5t-8.5 -19t-5.5 -25h-74z" />
<glyph unicode="&#xd2;" horiz-adv-x="894" d="M90 645q0 129 4 391q3 122 21 192.5t57 121.5q93 118 293 118q22 0 41 -1t59.5 -9.5t72.5 -24t67.5 -47.5t56.5 -77q29 -59 35 -129q16 -136 10 -437q0 -49 -3.5 -138t-4.5 -118q0 -43 -4 -129q-8 -101 -30.5 -177t-78.5 -126q-86 -75 -250 -75h-6q-192 -1 -274 116 q-30 39 -43 92q-11 38 -16 114.5t-6 142t-1 200.5zM209 1784h223l107 -219h-131zM274 862q0 -279 2 -418q0 -163 15 -211q35 -106 155 -106q47 0 85.5 21.5t56.5 62.5q20 41 25.5 116.5t7.5 223.5q2 63 2 192q0 201 -2 301q0 48 -0.5 69.5t-7.5 64.5t-21 67q-15 28 -50 50 t-89 22q-64 0 -107 -35q-48 -38 -60 -105t-12 -214v-101z" />
<glyph unicode="&#xd3;" horiz-adv-x="894" d="M90 645q0 129 4 391q3 122 21 192.5t57 121.5q93 118 293 118q22 0 41 -1t59.5 -9.5t72.5 -24t67.5 -47.5t56.5 -77q29 -59 35 -129q16 -136 10 -437q0 -49 -3.5 -138t-4.5 -118q0 -43 -4 -129q-8 -101 -30.5 -177t-78.5 -126q-86 -75 -250 -75h-6q-192 -1 -274 116 q-30 39 -43 92q-11 38 -16 114.5t-6 142t-1 200.5zM274 862q0 -279 2 -418q0 -163 15 -211q35 -106 155 -106q47 0 85.5 21.5t56.5 62.5q20 41 25.5 116.5t7.5 223.5q2 63 2 192q0 201 -2 301q0 48 -0.5 69.5t-7.5 64.5t-21 67q-15 28 -50 50t-89 22q-64 0 -107 -35 q-48 -38 -60 -105t-12 -214v-101zM358 1565l109 219h223l-201 -219h-131z" />
<glyph unicode="&#xd4;" horiz-adv-x="894" d="M90 645q0 129 4 391q3 122 21 192.5t57 121.5q93 118 293 118q22 0 41 -1t59.5 -9.5t72.5 -24t67.5 -47.5t56.5 -77q29 -59 35 -129q16 -136 10 -437q0 -49 -3.5 -138t-4.5 -118q0 -43 -4 -129q-8 -101 -30.5 -177t-78.5 -126q-86 -75 -250 -75h-6q-192 -1 -274 116 q-30 39 -43 92q-11 38 -16 114.5t-6 142t-1 200.5zM174 1565l209 219h133l201 -219h-178l-109 123l-119 -123h-137zM274 862q0 -279 2 -418q0 -163 15 -211q35 -106 155 -106q47 0 85.5 21.5t56.5 62.5q20 41 25.5 116.5t7.5 223.5q2 63 2 192q0 201 -2 301q0 48 -0.5 69.5 t-7.5 64.5t-21 67q-15 28 -50 50t-89 22q-64 0 -107 -35q-48 -38 -60 -105t-12 -214v-101z" />
<glyph unicode="&#xd5;" horiz-adv-x="894" d="M90 645q0 129 4 391q3 122 21 192.5t57 121.5q93 118 293 118q22 0 41 -1t59.5 -9.5t72.5 -24t67.5 -47.5t56.5 -77q29 -59 35 -129q16 -136 10 -437q0 -49 -3.5 -138t-4.5 -118q0 -43 -4 -129q-8 -101 -30.5 -177t-78.5 -126q-86 -75 -250 -75h-6q-192 -1 -274 116 q-30 39 -43 92q-11 38 -16 114.5t-6 142t-1 200.5zM190 1575v9q1 9 1.5 13t2 14t3.5 17l5 17.5t7 19t9.5 18t13 18.5t16.5 17q24 24 51 33q18 8 47 8q34 0 63.5 -8.5t92.5 -34.5q53 -20 78 -20q10 0 17.5 2t13 5t9.5 8.5t6.5 9.5t4 10.5t2.5 10t1.5 9t0.5 6.5h74 q-4 -40 -13 -69q-15 -51 -52.5 -82t-88.5 -31q-19 0 -43 5.5t-38.5 10.5t-45.5 17t-37 14l-12 4q-12 4 -28.5 8t-28.5 4q-16 0 -27 -4.5t-17 -14.5t-8.5 -19t-5.5 -25h-74zM274 862q0 -279 2 -418q0 -163 15 -211q35 -106 155 -106q47 0 85.5 21.5t56.5 62.5 q20 41 25.5 116.5t7.5 223.5q2 63 2 192q0 201 -2 301q0 48 -0.5 69.5t-7.5 64.5t-21 67q-15 28 -50 50t-89 22q-64 0 -107 -35q-48 -38 -60 -105t-12 -214v-101z" />
<glyph unicode="&#xd6;" horiz-adv-x="894" d="M90 645q0 129 4 391q3 122 21 192.5t57 121.5q93 118 293 118q22 0 41 -1t59.5 -9.5t72.5 -24t67.5 -47.5t56.5 -77q29 -59 35 -129q16 -136 10 -437q0 -49 -3.5 -138t-4.5 -118q0 -43 -4 -129q-8 -101 -30.5 -177t-78.5 -126q-86 -75 -250 -75h-6q-192 -1 -274 116 q-30 39 -43 92q-11 38 -16 114.5t-6 142t-1 200.5zM182 1565v219h170v-219h-170zM274 862q0 -279 2 -418q0 -163 15 -211q35 -106 155 -106q47 0 85.5 21.5t56.5 62.5q20 41 25.5 116.5t7.5 223.5q2 63 2 192q0 201 -2 301q0 48 -0.5 69.5t-7.5 64.5t-21 67q-15 28 -50 50 t-89 22q-64 0 -107 -35q-48 -38 -60 -105t-12 -214v-101zM547 1565v219h170v-219h-170z" />
<glyph unicode="&#xd7;" horiz-adv-x="1142" d="M223 854l119 115l238 -244l221 246l104 -103l-225 -247l235 -244l-112 -121l-234 242l-215 -242l-108 98l223 248z" />
<glyph unicode="&#xd8;" horiz-adv-x="894" d="M37 41l76 152q-14 81 -18.5 158.5t-4.5 232.5q0 139 4 413q2 123 14.5 195t41.5 123q91 153 307 153q128 0 209 -49q14 -9 43 -33l41 78l73 -39l-57 -116q17 -44 22 -68q21 -88 21 -432q0 -73 -4 -221q-6 -210 -6 -213q-13 -238 -119 -326q-84 -69 -244 -69 q-145 0 -229 63q-23 18 -49 49l-45 -92zM274 518l338 674q-10 45 -26 68q-42 57 -131 57q-18 0 -36.5 -4t-44 -14.5t-46.5 -35.5t-33 -61q-21 -66 -21 -371q0 -35 0.5 -98.5t0.5 -116t-1 -98.5zM276 334q2 -63 16.5 -107.5t55.5 -72.5q43 -27 101 -27q137 0 159 149 q7 46 15 334q4 180 4 267q0 26 -1 76.5t-1 74.5z" />
<glyph unicode="&#xd9;" horiz-adv-x="894" d="M96 360v1086h183v-959v-57.5v-55t0.5 -44t2.5 -43.5t5 -32.5t8 -29.5q22 -59 86 -80q30 -10 72 -10q46 0 76.5 11t54.5 42q18 24 24 52q8 39 8 178v1028h183v-1079q0 -60 -4 -101.5t-18 -90.5t-45 -86t-79 -64q-82 -45 -209 -45q-178 0 -264 83q-37 37 -59 99 q-25 72 -25 198zM209 1784h223l107 -219h-131z" />
<glyph unicode="&#xda;" horiz-adv-x="894" d="M96 360v1086h183v-959v-57.5v-55t0.5 -44t2.5 -43.5t5 -32.5t8 -29.5q22 -59 86 -80q30 -10 72 -10q46 0 76.5 11t54.5 42q18 24 24 52q8 39 8 178v1028h183v-1079q0 -60 -4 -101.5t-18 -90.5t-45 -86t-79 -64q-82 -45 -209 -45q-178 0 -264 83q-37 37 -59 99 q-25 72 -25 198zM358 1565l109 219h223l-201 -219h-131z" />
<glyph unicode="&#xdb;" horiz-adv-x="894" d="M96 360v1086h183v-959v-57.5v-55t0.5 -44t2.5 -43.5t5 -32.5t8 -29.5q22 -59 86 -80q30 -10 72 -10q46 0 76.5 11t54.5 42q18 24 24 52q8 39 8 178v1028h183v-1079q0 -60 -4 -101.5t-18 -90.5t-45 -86t-79 -64q-82 -45 -209 -45q-178 0 -264 83q-37 37 -59 99 q-25 72 -25 198zM174 1565l209 219h133l201 -219h-178l-109 123l-119 -123h-137z" />
<glyph unicode="&#xdc;" horiz-adv-x="894" d="M96 360v1086h183v-959v-57.5v-55t0.5 -44t2.5 -43.5t5 -32.5t8 -29.5q22 -59 86 -80q30 -10 72 -10q46 0 76.5 11t54.5 42q18 24 24 52q8 39 8 178v1028h183v-1079q0 -60 -4 -101.5t-18 -90.5t-45 -86t-79 -64q-82 -45 -209 -45q-178 0 -264 83q-37 37 -59 99 q-25 72 -25 198zM182 1565v219h170v-219h-170zM547 1565v219h170v-219h-170z" />
<glyph unicode="&#xdd;" horiz-adv-x="811" d="M0 1446h190l216 -723l215 723h190l-317 -860v-586h-187v586zM336 1565l108 219h224l-199 -219h-133z" />
<glyph unicode="&#xde;" horiz-adv-x="854" d="M102 0v1446h181v-240h116q138 0 208.5 -21t123.5 -89q14 -18 25 -39.5t18 -38.5t12 -45t7.5 -41.5t4 -46t1.5 -40v-43v-36.5q0 -79 -9.5 -141.5t-25.5 -105.5t-42.5 -74t-54.5 -49t-69 -28t-78.5 -13t-89.5 -3h-147v-352h-181zM283 512h120q96 0 121 10q24 9 40.5 20 t27 28.5t16.5 32.5t9 43.5t3.5 48.5t0.5 61q0 69 -2 103.5t-12 73.5t-32 60t-59 35q-37 12 -139 12h-94v-528z" />
<glyph unicode="&#xdf;" horiz-adv-x="811" d="M90 0v1157q0 93 19.5 144.5t60.5 84.5q75 66 211 66q19 0 37.5 -1t57 -9.5t68.5 -23.5t61.5 -46t47.5 -74q21 -52 21 -155q0 -51 -10.5 -89t-24.5 -60t-39 -38.5t-43 -23t-47 -14.5q47 -9 80 -25q100 -45 115 -166q12 -70 12 -217q0 -56 -4 -166q-4 -116 -23 -172 q-42 -127 -162 -164q-41 -14 -98 -14q-37 0 -84 8v139q44 -10 70 -10q15 0 31 3t40.5 18.5t36.5 42.5q25 60 25 239q0 102 -6 207q0 2 -0.5 17t-1 19.5t-1.5 18.5t-2.5 21t-3.5 19.5t-5 20.5t-7.5 17.5t-9.5 16.5q-34 49 -121 49q-7 0 -22.5 -1t-22.5 -1v145h15.5h18.5 t18 0.5t20 2t18.5 3.5t19 5.5t15.5 8.5t14 11q29 31 29 123q0 81 -18 118q-29 60 -113 60q-69 0 -100 -41q-14 -18 -19 -39q-8 -28 -8 -180v-1055h-166z" />
<glyph unicode="&#xe0;" d="M39 248q0 135 82 217q21 22 46 40t71 48t84 57q67 46 149 123v35q0 143 -125 143q-35 0 -60 -11t-37 -24t-18.5 -36t-7 -35t-0.5 -32v-7q0 -24 4 -78h-149q0 59 2 88q1 48 3 69t13.5 52.5t34.5 58.5q42 50 98.5 68t132.5 18q136 0 207 -73q33 -35 52 -86q12 -41 12 -174 v-492q0 -145 18 -182q5 -9 31 -35h-201v123q-10 -20 -17.5 -33.5t-26 -36t-39.5 -36t-55 -24.5t-75 -11q-70 0 -123 32q-61 37 -83.5 94.5t-22.5 139.5zM135 1374h223l109 -219h-131zM207 254q0 -154 112 -152q66 0 113 60q25 33 32 73t7 97v252q-30 -30 -57 -54 q-16 -12 -52 -36q-80 -61 -106 -91q-49 -66 -49 -149z" />
<glyph unicode="&#xe1;" d="M39 248q0 135 82 217q21 22 46 40t71 48t84 57q67 46 149 123v35q0 143 -125 143q-35 0 -60 -11t-37 -24t-18.5 -36t-7 -35t-0.5 -32v-7q0 -24 4 -78h-149q0 59 2 88q1 48 3 69t13.5 52.5t34.5 58.5q42 50 98.5 68t132.5 18q136 0 207 -73q33 -35 52 -86q12 -41 12 -174 v-492q0 -145 18 -182q5 -9 31 -35h-201v123q-10 -20 -17.5 -33.5t-26 -36t-39.5 -36t-55 -24.5t-75 -11q-70 0 -123 32q-61 37 -83.5 94.5t-22.5 139.5zM207 254q0 -154 112 -152q66 0 113 60q25 33 32 73t7 97v252q-30 -30 -57 -54q-16 -12 -52 -36q-80 -61 -106 -91 q-49 -66 -49 -149zM272 1155l109 219h223l-201 -219h-131z" />
<glyph unicode="&#xe2;" d="M39 248q0 135 82 217q21 22 46 40t71 48t84 57q67 46 149 123v35q0 143 -125 143q-35 0 -60 -11t-37 -24t-18.5 -36t-7 -35t-0.5 -32v-7q0 -24 4 -78h-149q0 59 2 88q1 48 3 69t13.5 52.5t34.5 58.5q42 50 98.5 68t132.5 18q136 0 207 -73q33 -35 52 -86q12 -41 12 -174 v-492q0 -145 18 -182q5 -9 31 -35h-201v123q-10 -20 -17.5 -33.5t-26 -36t-39.5 -36t-55 -24.5t-75 -11q-70 0 -123 32q-61 37 -83.5 94.5t-22.5 139.5zM100 1153l209 225h133l201 -225h-178l-111 129l-116 -129h-138zM207 254q0 -154 112 -152q66 0 113 60q25 33 32 73 t7 97v252q-30 -30 -57 -54q-16 -12 -52 -36q-80 -61 -106 -91q-49 -66 -49 -149z" />
<glyph unicode="&#xe3;" d="M39 248q0 135 82 217q21 22 46 40t71 48t84 57q67 46 149 123v35q0 143 -125 143q-35 0 -60 -11t-37 -24t-18.5 -36t-7 -35t-0.5 -32v-7q0 -24 4 -78h-149q0 59 2 88q1 48 3 69t13.5 52.5t34.5 58.5q42 50 98.5 68t132.5 18q136 0 207 -73q33 -35 52 -86q12 -41 12 -174 v-492q0 -145 18 -182q5 -9 31 -35h-201v123q-10 -20 -17.5 -33.5t-26 -36t-39.5 -36t-55 -24.5t-75 -11q-70 0 -123 32q-61 37 -83.5 94.5t-22.5 139.5zM106 1165q0 90 56 144q28 24 51 32q27 9 47 9q45 0 139 -37l6 -1.5t5 -2t6 -2.5q56 -21 80 -21q9 0 16.5 2t13 5.5 t9.5 8.5t6 9.5t4 11t2.5 10t1 9t0.5 6.5h74q-2 -41 -11 -70q-4 -14 -12.5 -29t-24.5 -36t-44 -34.5t-62 -13.5q-23 0 -51.5 8t-64.5 21.5t-48 17.5q-50 17 -69 17q-11 0 -19.5 -2.5t-14.5 -8t-10 -10.5t-6 -13l-3 -12t-2 -11l-1 -7h-74zM207 254q0 -154 112 -152 q66 0 113 60q25 33 32 73t7 97v252q-30 -30 -57 -54q-16 -12 -52 -36q-80 -61 -106 -91q-49 -66 -49 -149z" />
<glyph unicode="&#xe4;" d="M39 248q0 135 82 217q21 22 46 40t71 48t84 57q67 46 149 123v35q0 143 -125 143q-35 0 -60 -11t-37 -24t-18.5 -36t-7 -35t-0.5 -32v-7q0 -24 4 -78h-149q0 59 2 88q1 48 3 69t13.5 52.5t34.5 58.5q42 50 98.5 68t132.5 18q136 0 207 -73q33 -35 52 -86q12 -41 12 -174 v-492q0 -145 18 -182q5 -9 31 -35h-201v123q-10 -20 -17.5 -33.5t-26 -36t-39.5 -36t-55 -24.5t-75 -11q-70 0 -123 32q-61 37 -83.5 94.5t-22.5 139.5zM117 1153v211h162v-211h-162zM207 254q0 -154 112 -152q66 0 113 60q25 33 32 73t7 97v252q-30 -30 -57 -54 q-16 -12 -52 -36q-80 -61 -106 -91q-49 -66 -49 -149zM436 1153v211h158v-211h-158z" />
<glyph unicode="&#xe5;" d="M39 248q0 135 82 217q21 22 46 40t71 48t84 57q67 46 149 123v35q0 143 -125 143q-35 0 -60 -11t-37 -24t-18.5 -36t-7 -35t-0.5 -32v-7q0 -24 4 -78h-149q0 59 2 88q1 48 3 69t13.5 52.5t34.5 58.5q42 50 98.5 68t132.5 18q136 0 207 -73q33 -35 52 -86q12 -41 12 -174 v-492q0 -145 18 -182q5 -9 31 -35h-201v123q-10 -20 -17.5 -33.5t-26 -36t-39.5 -36t-55 -24.5t-75 -11q-70 0 -123 32q-61 37 -83.5 94.5t-22.5 139.5zM193 1288q0 68 48 116t117 48q68 0 116.5 -48.5t47.5 -117.5q0 -67 -49 -115.5t-117 -48.5t-115.5 49t-47.5 117z M207 254q0 -154 112 -152q66 0 113 60q25 33 32 73t7 97v252q-30 -30 -57 -54q-16 -12 -52 -36q-80 -61 -106 -91q-49 -66 -49 -149zM283 1288q0 -32 21.5 -53t53.5 -21q30 0 52 22t22 52q0 39 -27 56.5t-49 17.5q-16 0 -26 -4q-47 -19 -47 -70z" />
<glyph unicode="&#xe6;" horiz-adv-x="1110" d="M68 242q0 80 15.5 122t47.5 80q17 20 39 38.5t40 31t60 40t72 48.5q27 20 141 109v65v27t-6 32.5t-16.5 38t-34 25.5t-57.5 12q-42 0 -72 -22q-23 -19 -34 -52.5t-12 -53.5t-1 -60v-33h-150q0 10 0.5 45.5t1.5 53.5t4 47t9.5 52t17.5 44q58 110 225 110q97 0 158 -34 q19 -13 45 -33q11 8 25 18t16 11q68 38 158 38q91 0 160 -43q33 -21 56 -50t34 -55t17 -67.5t6.5 -65.5t0.5 -72v-19v-187h-399v-227q0 -81 37 -115.5t88 -34.5q36 0 63 19q54 36 54 127q2 18 2 53v27h155v-35q0 -104 -22 -160q-23 -64 -87 -109.5t-177 -45.5 q-60 0 -107.5 16.5t-69.5 34t-47 45.5q-58 -52 -103 -74t-114 -22q-93 0 -147 42.5t-74 94.5q-18 45 -18 123zM225 252q0 -60 30.5 -99.5t88.5 -39.5q71 0 111 59q17 24 22.5 53.5t5.5 89.5l-2 236q-7 -5 -33 -25t-42 -30q-8 -6 -34 -24.5t-34.5 -25t-29.5 -23.5 t-28.5 -26.5t-21 -28t-19 -34t-10 -37t-4.5 -45.5zM635 616h246v109q0 71 -13 111q-27 79 -114 79q-42 0 -72 -24q-22 -18 -33 -47t-12.5 -49.5t-1.5 -57.5v-12v-109z" />
<glyph unicode="&#xe7;" d="M74 481q0 84 1 128.5t4.5 109.5t11.5 98.5t22 77.5t36 65.5t53 43.5t73.5 30t97.5 8q56 0 100 -10.5t73.5 -27t50 -45t32 -55t17.5 -67.5t7.5 -73t1.5 -80v-31h-155q0 137 -9 177q-18 74 -84 87q-14 3 -32 3q-59 1 -86 -26t-39 -71q-12 -47 -12 -280v-31q0 -257 8 -293 q0 -33 24 -63q31 -45 95 -45q36 -1 60.5 10.5t39 30.5t22.5 52t10.5 67t2.5 85v25h155v-29q0 -168 -32 -231q-72 -139 -242 -139l-39 -121q48 20 92 20q58 0 98 -35.5t41 -95.5q0 -29 -13 -59t-37.5 -58t-69 -46t-99.5 -19q-16 0 -31 1t-29.5 4t-24 5t-23.5 7.5t-19 7.5 t-18.5 8.5t-15.5 7.5l24 49q63 -29 113 -29q58 0 87 33.5t29 67.5q2 33 -21 56.5t-56 23.5q-35 0 -62 -27l-43 14l64 185q-47 6 -83 16.5t-63 31t-45.5 39t-30 56.5t-18.5 65.5t-10 84t-3.5 94t-0.5 112.5z" />
<glyph unicode="&#xe8;" d="M74 604q0 97 8 176q10 85 30 128.5t58 74.5q70 57 188 57q63 0 109.5 -11t87.5 -44q40 -28 61 -72q8 -17 14.5 -35.5t10.5 -41.5t6 -39.5t3 -44t1 -40v-42.5v-37v-152h-411q-3 -90 0 -180q3 -68 10 -96q26 -90 123 -90q49 0 76 22q30 23 40.5 63.5t8.5 116.5h153 q1 -56 -0.5 -88t-15.5 -76t-43 -79q-76 -92 -225 -92q-186 0 -256 137q-10 19 -16 39t-10 34t-5.5 45.5t-2 44.5t-1 62t-0.5 70q-2 63 -2 190zM135 1374h223l109 -219h-131zM240 612h258v43q0 80 -2 119q-7 141 -127 141q-80 0 -109 -65q-14 -31 -17 -69.5t-3 -125.5v-43z " />
<glyph unicode="&#xe9;" d="M74 604q0 97 8 176q10 85 30 128.5t58 74.5q70 57 188 57q63 0 109.5 -11t87.5 -44q40 -28 61 -72q8 -17 14.5 -35.5t10.5 -41.5t6 -39.5t3 -44t1 -40v-42.5v-37v-152h-411q-3 -90 0 -180q3 -68 10 -96q26 -90 123 -90q49 0 76 22q30 23 40.5 63.5t8.5 116.5h153 q1 -56 -0.5 -88t-15.5 -76t-43 -79q-76 -92 -225 -92q-186 0 -256 137q-10 19 -16 39t-10 34t-5.5 45.5t-2 44.5t-1 62t-0.5 70q-2 63 -2 190zM240 612h258v43q0 80 -2 119q-7 141 -127 141q-80 0 -109 -65q-14 -31 -17 -69.5t-3 -125.5v-43zM272 1155l109 219h223 l-201 -219h-131z" />
<glyph unicode="&#xea;" d="M74 604q0 97 8 176q10 85 30 128.5t58 74.5q70 57 188 57q63 0 109.5 -11t87.5 -44q40 -28 61 -72q8 -17 14.5 -35.5t10.5 -41.5t6 -39.5t3 -44t1 -40v-42.5v-37v-152h-411q-3 -90 0 -180q3 -68 10 -96q26 -90 123 -90q49 0 76 22q30 23 40.5 63.5t8.5 116.5h153 q1 -56 -0.5 -88t-15.5 -76t-43 -79q-76 -92 -225 -92q-186 0 -256 137q-10 19 -16 39t-10 34t-5.5 45.5t-2 44.5t-1 62t-0.5 70q-2 63 -2 190zM100 1153l209 225h133l201 -225h-178l-111 129l-116 -129h-138zM240 612h258v43q0 80 -2 119q-7 141 -127 141q-80 0 -109 -65 q-14 -31 -17 -69.5t-3 -125.5v-43z" />
<glyph unicode="&#xeb;" d="M74 604q0 97 8 176q10 85 30 128.5t58 74.5q70 57 188 57q63 0 109.5 -11t87.5 -44q40 -28 61 -72q8 -17 14.5 -35.5t10.5 -41.5t6 -39.5t3 -44t1 -40v-42.5v-37v-152h-411q-3 -90 0 -180q3 -68 10 -96q26 -90 123 -90q49 0 76 22q30 23 40.5 63.5t8.5 116.5h153 q1 -56 -0.5 -88t-15.5 -76t-43 -79q-76 -92 -225 -92q-186 0 -256 137q-10 19 -16 39t-10 34t-5.5 45.5t-2 44.5t-1 62t-0.5 70q-2 63 -2 190zM125 1153v211h162v-211h-162zM240 612h258v43q0 80 -2 119q-7 141 -127 141q-80 0 -109 -65q-14 -31 -17 -69.5t-3 -125.5v-43z M442 1153v211h160v-211h-160z" />
<glyph unicode="&#xec;" horiz-adv-x="342" d="M-57 1374h223l108 -219h-131zM90 0v1024h162v-1024h-162z" />
<glyph unicode="&#xed;" horiz-adv-x="342" d="M80 1155l108 219h224l-199 -219h-133zM90 0v1024h162v-1024h-162z" />
<glyph unicode="&#xee;" horiz-adv-x="342" d="M-92 1153l209 225h133l201 -225h-179l-108 129l-119 -129h-137zM90 0v1024h162v-1024h-162z" />
<glyph unicode="&#xef;" horiz-adv-x="342" d="M-68 1153v211h162v-211h-162zM90 0v1024h162v-1024h-162zM252 1153v211h158v-211h-158z" />
<glyph unicode="&#xf0;" d="M73.5 271q-0.5 13 0 37.5t0.5 25.5v137q0 265 8 328q7 45 16 71q28 83 86 127q63 50 146 50q40 0 74 -15.5t50.5 -30.5t37.5 -40q-1 6 -5 32t-5.5 35.5t-6 32t-8 36t-9 32.5t-12.5 35t-16 32l-225 -70l-33 95l199 61q-51 62 -127 115l137 57q76 -55 113 -106l14 -21 l141 45l35 -98l-115 -35q9 -17 19 -41.5t16 -41.5t6 -19q21 -52 30.5 -130.5t11 -144.5t1.5 -214v-58q0 -114 -6 -258q-2 -47 -4 -77.5t-9 -70.5t-18.5 -65.5t-32 -53.5t-49 -44t-71 -27t-96.5 -12q-47 -1 -87 7t-68 20.5t-51 34t-37.5 40.5t-24.5 47.5t-15 48t-7.5 49 t-3 42.5zM246 575q0 -298 4 -348q5 -41 14 -59q31 -59 92 -59q33 0 57 13.5t35.5 33t18 47t8 50t2.5 46.5v12q4 72 4 193v96v36q0 48 -0.5 72t-3 63t-10 58.5t-19.5 41t-32.5 30t-48.5 8.5q-74 0 -105 -73q-16 -36 -16 -261z" />
<glyph unicode="&#xf1;" horiz-adv-x="768" d="M90 0v1024h156v-94q4 5 11 13.5t13 15.5t11 12q82 71 186 71q122 0 176 -88q23 -37 29 -84t6 -149v-721h-166v750q0 163 -121 163q-91 0 -123 -86q-3 -8 -5 -16t-3.5 -14.5t-2.5 -17.5t-2 -17t-1 -21.5v-21.5v-27.5v-29.5v-662h-164zM127 1165q0 91 57 144q24 23 49 32 q30 9 50 9q7 0 14 -0.5t12 -1t12.5 -2t12 -2.5t13.5 -4l13.5 -4.5t16 -5.5t17 -6.5t20.5 -8t22 -8.5q55 -21 80 -21q53 0 53 62h74q-2 -45 -10 -70q-4 -13 -12.5 -28.5t-25 -36.5t-44.5 -34.5t-62 -13.5q-23 0 -49.5 7t-67 22.5t-46.5 17.5q-56 17 -70 17q-11 0 -19.5 -2.5 t-14 -8t-9.5 -10.5t-6 -12.5t-3 -12t-2 -11t-1 -7.5h-74z" />
<glyph unicode="&#xf2;" d="M74 330v133q0 178 4 266q4 168 74 240q66 73 219 73q57 0 102.5 -14t73.5 -33t49 -51.5t31 -56.5t16 -61.5t6.5 -53.5t1.5 -45q3 -112 0 -225q0 -131 -4 -197q-3 -76 -10 -115q-5 -32 -14.5 -58.5t-30 -55.5t-49.5 -48.5t-76.5 -32.5t-108.5 -13q-175 0 -241 112 q-27 48 -35 104t-8 132zM135 1374h223l109 -219h-131zM246 559q0 -41 1 -124t1 -124q0 -98 10 -129q21 -71 100 -71q52 0 77.5 26.5t35.5 79.5q10 59 10 287q0 149 -2 225q-1 30 -2 48t-7.5 47t-17.5 45t-32 28.5t-51 11.5q-92 0 -113 -96q-10 -43 -10 -254z" />
<glyph unicode="&#xf3;" d="M74 330v133q0 178 4 266q4 168 74 240q66 73 219 73q57 0 102.5 -14t73.5 -33t49 -51.5t31 -56.5t16 -61.5t6.5 -53.5t1.5 -45q3 -112 0 -225q0 -131 -4 -197q-3 -76 -10 -115q-5 -32 -14.5 -58.5t-30 -55.5t-49.5 -48.5t-76.5 -32.5t-108.5 -13q-175 0 -241 112 q-27 48 -35 104t-8 132zM246 559q0 -41 1 -124t1 -124q0 -98 10 -129q21 -71 100 -71q52 0 77.5 26.5t35.5 79.5q10 59 10 287q0 149 -2 225q-1 30 -2 48t-7.5 47t-17.5 45t-32 28.5t-51 11.5q-92 0 -113 -96q-10 -43 -10 -254zM272 1155l109 219h223l-201 -219h-131z" />
<glyph unicode="&#xf4;" d="M74 330v133q0 178 4 266q4 168 74 240q66 73 219 73q57 0 102.5 -14t73.5 -33t49 -51.5t31 -56.5t16 -61.5t6.5 -53.5t1.5 -45q3 -112 0 -225q0 -131 -4 -197q-3 -76 -10 -115q-5 -32 -14.5 -58.5t-30 -55.5t-49.5 -48.5t-76.5 -32.5t-108.5 -13q-175 0 -241 112 q-27 48 -35 104t-8 132zM100 1153l209 225h133l201 -225h-178l-111 129l-116 -129h-138zM246 559q0 -41 1 -124t1 -124q0 -98 10 -129q21 -71 100 -71q52 0 77.5 26.5t35.5 79.5q10 59 10 287q0 149 -2 225q-1 30 -2 48t-7.5 47t-17.5 45t-32 28.5t-51 11.5q-92 0 -113 -96 q-10 -43 -10 -254z" />
<glyph unicode="&#xf5;" d="M74 330v133q0 178 4 266q4 168 74 240q66 73 219 73q57 0 102.5 -14t73.5 -33t49 -51.5t31 -56.5t16 -61.5t6.5 -53.5t1.5 -45q3 -112 0 -225q0 -131 -4 -197q-3 -76 -10 -115q-5 -32 -14.5 -58.5t-30 -55.5t-49.5 -48.5t-76.5 -32.5t-108.5 -13q-175 0 -241 112 q-27 48 -35 104t-8 132zM106 1165q0 90 56 144q28 24 51 32q27 9 47 9q45 0 139 -37l6 -1.5t5 -2t6 -2.5q56 -21 80 -21q9 0 16.5 2t13 5.5t9.5 8.5t6 9.5t4 11t2.5 10t1 9t0.5 6.5h74q-2 -41 -11 -70q-4 -14 -12.5 -29t-24.5 -36t-44 -34.5t-62 -13.5q-23 0 -51.5 8 t-64.5 21.5t-48 17.5q-50 17 -69 17q-11 0 -19.5 -2.5t-14.5 -8t-10 -10.5t-6 -13l-3 -12t-2 -11l-1 -7h-74zM246 559q0 -41 1 -124t1 -124q0 -98 10 -129q21 -71 100 -71q52 0 77.5 26.5t35.5 79.5q10 59 10 287q0 149 -2 225q-1 30 -2 48t-7.5 47t-17.5 45t-32 28.5 t-51 11.5q-92 0 -113 -96q-10 -43 -10 -254z" />
<glyph unicode="&#xf6;" d="M74 330v133q0 178 4 266q4 168 74 240q66 73 219 73q57 0 102.5 -14t73.5 -33t49 -51.5t31 -56.5t16 -61.5t6.5 -53.5t1.5 -45q3 -112 0 -225q0 -131 -4 -197q-3 -76 -10 -115q-5 -32 -14.5 -58.5t-30 -55.5t-49.5 -48.5t-76.5 -32.5t-108.5 -13q-175 0 -241 112 q-27 48 -35 104t-8 132zM125 1153v211h160v-211h-160zM246 559q0 -41 1 -124t1 -124q0 -98 10 -129q21 -71 100 -71q52 0 77.5 26.5t35.5 79.5q10 59 10 287q0 149 -2 225q-1 30 -2 48t-7.5 47t-17.5 45t-32 28.5t-51 11.5q-92 0 -113 -96q-10 -43 -10 -254zM442 1153v211 h158v-211h-158z" />
<glyph unicode="&#xf7;" horiz-adv-x="1144" d="M162 535v149h821v-149h-821zM489 203v209h170v-209h-170zM489 805v209h168l2 -209h-170z" />
<glyph unicode="&#xf8;" d="M29 27l63 116q-16 70 -18 183q-2 43 -2 129q0 83 4 247q0 187 76 267q71 73 219 73q108 0 170 -43q3 -2 30 -22l45 70l56 -46l-56 -92q1 -3 6.5 -16.5t8.5 -24.5q20 -79 20 -278q0 -189 -4 -283q-1 -55 -5 -91.5t-22 -84.5t-51 -80q-69 -69 -207 -69q-116 0 -188 51 q-14 10 -39 35l-43 -86zM244 406l229 399q0 16 -10 39q-23 67 -98 65q-63 0 -95 -53q-6 -11 -11 -25t-8 -36.5t-4.5 -39t-2 -50t-0.5 -51v-61v-61.5v-126zM250 262q0 -49 4 -67q20 -84 102 -84q103 0 117 120q8 55 8 344q0 62 -2 93z" />
<glyph unicode="&#xf9;" horiz-adv-x="768" d="M90 356v25v643h164v-672q0 -57 2 -86q0 -63 14 -94q30 -68 107 -68q47 0 80 27q37 29 48 77t11 148v668h162v-1024h-158l-2 94q-17 -22 -29.5 -34.5t-39.5 -34t-64.5 -32.5t-83.5 -11q-78 0 -133 45q-54 44 -66 110.5t-12 218.5zM156 1374h223l108 -219h-131z" />
<glyph unicode="&#xfa;" horiz-adv-x="768" d="M90 356v25v643h164v-672q0 -57 2 -86q0 -63 14 -94q30 -68 107 -68q47 0 80 27q37 29 48 77t11 148v668h162v-1024h-158l-2 94q-17 -22 -29.5 -34.5t-39.5 -34t-64.5 -32.5t-83.5 -11q-78 0 -133 45q-54 44 -66 110.5t-12 218.5zM295 1155l106 219h226l-201 -219h-131z " />
<glyph unicode="&#xfb;" horiz-adv-x="768" d="M90 356v25v643h164v-672q0 -57 2 -86q0 -63 14 -94q30 -68 107 -68q47 0 80 27q37 29 48 77t11 148v668h162v-1024h-158l-2 94q-17 -22 -29.5 -34.5t-39.5 -34t-64.5 -32.5t-83.5 -11q-78 0 -133 45q-54 44 -66 110.5t-12 218.5zM121 1153l209 225h133l201 -225h-179 l-108 129l-119 -129h-137z" />
<glyph unicode="&#xfc;" horiz-adv-x="768" d="M90 356v25v643h164v-672q0 -57 2 -86q0 -63 14 -94q30 -68 107 -68q47 0 80 27q37 29 48 77t11 148v668h162v-1024h-158l-2 94q-17 -22 -29.5 -34.5t-39.5 -34t-64.5 -32.5t-83.5 -11q-78 0 -133 45q-54 44 -66 110.5t-12 218.5zM150 1153v211h161v-211h-161zM469 1153 v211h158v-211h-158z" />
<glyph unicode="&#xfd;" horiz-adv-x="681" d="M12 1024h176l162 -823l131 823h174l-176 -893q-6 -29 -16 -85.5t-15 -80.5t-15 -66.5t-20 -64.5t-25 -50.5t-35 -48t-46 -36.5q-49 -33 -160 -33h-106v141q7 0 23 -1t24 -1q28 0 40.5 0.5t38 3.5t39 10.5t29 20.5t22.5 34.5t7 51.5q0 42 -20 125zM252 1155l108 219h224 l-201 -219h-131z" />
<glyph unicode="&#xfe;" horiz-adv-x="768" d="M90 -326v1772h162v-520q27 35 47.5 55.5t64.5 40.5t97 20q86 0 149 -55q25 -23 41 -54.5t24.5 -60t13 -81t5 -88t0.5 -109.5q0 -197 -8 -319t-33 -171q-54 -110 -192 -122q-52 -2 -95 16t-64.5 38t-43.5 50v-412h-168zM259 433.5q0 -25.5 1 -66.5t3.5 -70.5t7 -58 t10.5 -43.5q33 -89 116 -91q28 -1 49 7.5t34 27t21.5 35t12 45.5t5 43.5t1.5 43.5v32q1 36 2 98t2 99q0 29 -1 88t-1 88q-1 25 -2 37.5t-4.5 41t-11 45.5t-20 36.5t-33 29.5t-48.5 10q-26 1 -47 -6t-35.5 -22.5t-25.5 -31t-17.5 -41.5t-10.5 -43.5t-5.5 -47t-2 -42.5 t0 -39.5t0.5 -29.5v-71q0 -6 -0.5 -42t-0.5 -61.5z" />
<glyph unicode="&#xff;" horiz-adv-x="681" d="M12 1024h176l162 -823l131 823h174l-176 -893q-4 -19 -11 -56t-11 -55q-13 -69 -21.5 -106.5t-33.5 -94t-60 -91.5q-39 -38 -84 -50t-111 -12h-106v141q55 -3 109 0q21 2 34.5 6t35 15t33 36t11.5 62q0 39 -20 125zM104 1153v211h160v-211h-160zM422 1153v211h158v-211 h-158z" />
<glyph unicode="&#x152;" horiz-adv-x="1323" d="M90 598q0 292 8 444q3 65 6.5 98.5t14 84t33 88.5t59.5 71q94 84 250 84q36 0 106 -8q13 -1 40 -4t42 -4q58 -6 115 -6h496v-162h-429v-430h365v-164h-365v-528h451v-162h-524q-26 0 -148 -10q-148 -10 -174 -10h-7q-129 -1 -210 69q-47 38 -71 87.5t-37 119.5 q-21 114 -21 342zM276 721q0 -177 5 -305q3 -150 36 -207q18 -30 58.5 -52t101.5 -22q85 0 129 49q25 29 35 66q16 58 16 256v469q0 133 -2 160q-5 53 -19.5 89.5t-49.5 61.5q-41 29 -109 29q-115 0 -162 -88q-18 -34 -27 -93t-10.5 -110.5t-1.5 -161.5v-141z" />
<glyph unicode="&#x153;" horiz-adv-x="1110" d="M74 466v14.5v14v15.5q0 60 4 174q0 57 2 86q15 189 139 244q70 28 143 28q50 0 95.5 -15.5t62.5 -27t45 -32.5q49 41 91.5 58t103.5 17q96 0 170 -51q37 -28 60 -62t32.5 -78.5t11.5 -77t2 -87.5v-199h-397v-67q0 -9 -0.5 -49t-0.5 -67t2 -60.5t7 -50.5 q12 -39 43.5 -60.5t73.5 -21.5q48 0 74 26q28 25 35.5 66t9.5 131h153q0 -12 -1 -34t-1 -32q-6 -107 -35.5 -163.5t-83.5 -86.5q-64 -36 -153 -36q-51 0 -94.5 16t-61 30t-43.5 38q-11 -11 -35 -31q-77 -53 -184 -53q-133 0 -209 86q-26 33 -33 55q-13 34 -19.5 91 t-7.5 103.5t-1 148.5zM238 528q0 -151 4 -227q2 -64 6 -90.5t20 -52.5q28 -49 94 -49q50 0 78 30q11 11 18.5 26.5t11.5 28t6.5 39t3.5 40t1.5 51.5t1.5 55q4 86 4 127q2 68 -2 207q0 81 -10 114q-28 86 -113 86q-48 0 -76 -31t-36 -81q-12 -99 -12 -273zM639 621h242v22 q0 65 -1 95.5t-6.5 65t-17.5 54.5q-30 51 -100 51q-37 0 -64 -18q-25 -18 -38 -54.5t-14 -58.5t-1 -65v-92z" />
<glyph unicode="&#x178;" horiz-adv-x="811" d="M0 1446h190l216 -723l215 723h190l-317 -860v-586h-187v586zM139 1565v219h170v-219h-170zM504 1565v219h170v-219h-170z" />
<glyph unicode="&#x2c6;" horiz-adv-x="468" d="M-37 1153l209 225h133l201 -225h-178l-111 129l-117 -129h-137z" />
<glyph unicode="&#x2dc;" horiz-adv-x="468" d="M-23 1165q0 92 54 144q28 24 51 32q27 9 47 9q24 0 47.5 -5t42 -12t66.5 -26q59 -21 80 -21q53 0 53 62h76q-6 -52 -11 -70q-4 -14 -12.5 -29t-24.5 -36t-44 -34.5t-62 -13.5q-23 0 -51.5 7.5t-66.5 22t-46 17.5q-52 17 -70 17q-55 0 -55 -64h-74z" />
<glyph unicode="&#x2000;" horiz-adv-x="930" />
<glyph unicode="&#x2001;" horiz-adv-x="1860" />
<glyph unicode="&#x2002;" horiz-adv-x="930" />
<glyph unicode="&#x2003;" horiz-adv-x="1860" />
<glyph unicode="&#x2004;" horiz-adv-x="620" />
<glyph unicode="&#x2005;" horiz-adv-x="465" />
<glyph unicode="&#x2006;" horiz-adv-x="310" />
<glyph unicode="&#x2007;" horiz-adv-x="310" />
<glyph unicode="&#x2008;" horiz-adv-x="232" />
<glyph unicode="&#x2009;" horiz-adv-x="372" />
<glyph unicode="&#x200a;" horiz-adv-x="103" />
<glyph unicode="&#x2010;" horiz-adv-x="544" d="M51 518v160h443v-160h-443z" />
<glyph unicode="&#x2011;" horiz-adv-x="544" d="M51 518v160h443v-160h-443z" />
<glyph unicode="&#x2012;" horiz-adv-x="544" d="M51 518v160h443v-160h-443z" />
<glyph unicode="&#x2013;" horiz-adv-x="759" d="M51 518v160h658v-160h-658z" />
<glyph unicode="&#x2014;" horiz-adv-x="1161" d="M51 518v160h1059v-160h-1059z" />
<glyph unicode="&#x2018;" horiz-adv-x="342" d="M84 926v248q0 44 4 78t15.5 67.5t30.5 57.5t50.5 42.5t73.5 26.5v-105q-14 -4 -25.5 -9t-19 -14.5t-13.5 -15.5t-9.5 -20.5t-6 -20t-3.5 -24t-1 -22.5v-25v-23h78v-241h-174z" />
<glyph unicode="&#x2019;" horiz-adv-x="342" d="M84 926v104q33 8 51 31t22.5 46.5t4.5 59.5q0 27 -2 39h-76v240h174v-248q0 -55 -7 -96t-25 -79t-53.5 -62t-88.5 -35z" />
<glyph unicode="&#x201a;" horiz-adv-x="342" d="M84 0v242h174v-250q0 -114 -36.5 -182.5t-137.5 -90.5v107q47 11 62.5 46t15.5 91q0 25 -2 37h-76z" />
<glyph unicode="&#x201c;" horiz-adv-x="641" d="M84 926v248q0 44 4 78t15.5 67.5t30.5 57.5t50.5 42.5t73.5 26.5v-105q-39 -10 -58.5 -43.5t-19.5 -76.5v-54h78v-241h-174zM381 1174q0 54 7 95t25.5 79.5t54.5 63.5t89 34v-105q-28 -7 -45 -23t-23.5 -43.5t-8 -46t-1.5 -52.5v-9h78v-241h-174q0 41 -1 124t-1 124z" />
<glyph unicode="&#x201d;" horiz-adv-x="641" d="M84 926v104q46 18 62 50t16 87q0 25 -2 37h-76v242h174v-248q0 -55 -7 -96t-25 -79t-53.5 -62t-88.5 -35zM383 926v104q15 3 27 12t20.5 19t14 22t8.5 20t4.5 24.5t2 22.5t0 27t-0.5 27h-76v242h174v-248q0 -54 -7 -95t-25 -79t-53.5 -62.5t-88.5 -35.5z" />
<glyph unicode="&#x201e;" horiz-adv-x="641" d="M84 0v242h174v-250q0 -56 -7 -96.5t-24.5 -78.5t-53.5 -62.5t-89 -35.5v105q46 18 62 50t16 87q0 27 -2 39h-76zM383 0v242h174v-250q0 -114 -37 -183.5t-137 -89.5v105q2 1 12 5t15 7q12 9 20.5 18.5t14 22.5t8.5 21t4.5 25t2 23.5t0 27.5t-0.5 26h-76z" />
<glyph unicode="&#x2022;" horiz-adv-x="698" d="M158 475v510h381v-510h-381z" />
<glyph unicode="&#x2026;" horiz-adv-x="2048" d="M256 0v205h172v-205h-172zM938 0v205h172v-205h-172zM1620 0v205h172v-205h-172z" />
<glyph unicode="&#x202f;" horiz-adv-x="372" />
<glyph unicode="&#x2039;" horiz-adv-x="382" d="M41 487v177l287 319v-238l-152 -170l152 -172v-239z" />
<glyph unicode="&#x203a;" horiz-adv-x="382" d="M57 164v239l152 172l-152 170v238l285 -319v-177z" />
<glyph unicode="&#x205f;" horiz-adv-x="465" />
<glyph unicode="&#x20ac;" horiz-adv-x="888" d="M49 569l25 117h82v100h-105l23 117h84v113q0 106 14 183.5t61 139.5q99 129 304 129q87 0 154.5 -21t133.5 -71l-47 -180q-64 62 -117 91.5t-126 29.5q-70 0 -114 -27.5t-59.5 -71t-22 -98.5t-2.5 -110.5t-1 -106.5h389l-27 -117h-362v-100h342l-25 -117h-317 q-2 -16 -2 -96q0 -203 31 -260q44 -82 159 -82q169 0 293 127v-199q-141 -79 -332 -79q-105 0 -183 48t-114 142q-16 41 -23.5 98.5t-8.5 94t0.5 112t1.5 94.5h-109z" />
<glyph unicode="&#x2122;" horiz-adv-x="1140" d="M10 1348v98h385v-98h-135v-582h-119v582h-131zM457 766v680h182l111 -541l110 541h187v-680h-119l14 614l-131 -614h-125l-129 606l12 -606h-112z" />
<glyph unicode="&#x25fc;" horiz-adv-x="1024" d="M0 0v1024h1024v-1024h-1024z" />
</font>
</defs>
</svg>
