<?xml version="1.0" standalone="no"?>
<!DOCTYPE svg PUBLIC "-//W3C//DTD SVG 1.1//EN" "http://www.w3.org/Graphics/SVG/1.1/DTD/svg11.dtd" >
<svg xmlns="http://www.w3.org/2000/svg" xmlns:xlink="http://www.w3.org/1999/xlink" version="1.1">
<metadata></metadata>
<defs>
<font id="akzidenz-grotesk_bqbold" horiz-adv-x="1236" >
<font-face units-per-em="2048" ascent="1638" descent="-410" />
<missing-glyph horiz-adv-x="598" />
<glyph horiz-adv-x="0" />
<glyph horiz-adv-x="682" />
<glyph unicode=" "  horiz-adv-x="598" />
<glyph unicode="&#x09;" horiz-adv-x="598" />
<glyph unicode="&#xa0;" horiz-adv-x="598" />
<glyph unicode="!" horiz-adv-x="598" d="M184 0v348h328v-348h-328zM184 1014v432h328v-418l-98 -530h-138z" />
<glyph unicode="&#x22;" horiz-adv-x="651" d="M55 1522h211l-67 -623h-76zM387 1522h211l-68 -623h-75z" />
<glyph unicode="#" horiz-adv-x="1366" d="M86 381v254h229l27 194h-205v254h240l51 363h254l-51 -363h205l49 363h256l-49 -363h186v-254h-223l-25 -194h201v-254h-238l-53 -381h-258l55 381h-202l-54 -381h-254l52 381h-193zM569 635h203l29 194h-205z" />
<glyph unicode="$" horiz-adv-x="1366" d="M53 168l189 213q4 -2 30.5 -16.5t49.5 -26t57 -26.5t72.5 -27t76.5 -19q26 -4 78 -8v315q-174 35 -248 62q-245 96 -245 336q0 80 22.5 147t54 109t76.5 75.5t77.5 49.5t68.5 28q30 10 63 17t53 9.5t46 5t30 3.5v234h166v-236q78 -8 115 -16q75 -17 156 -52t109 -51.5 t77 -46.5l-180 -209q-106 53 -151 68.5t-126 32.5v-273q143 -33 209 -55q190 -61 256 -193q41 -79 41 -174q0 -66 -25 -143q-12 -37 -25.5 -66t-40 -67t-71.5 -72.5t-106 -62.5q-81 -36 -238 -53v-246h-164v246q-69 7 -114 14q-112 18 -205 52t-146 65q-27 15 -88 57z M440 1008q0 -25 13 -47q14 -26 48 -39.5t105 -26.5l-2 246q-50 -7 -83 -21t-58 -47q-23 -35 -23 -65zM770 262l17 3q17 3 31.5 7.5t34.5 12t38 21t31 30.5q26 34 26 82q0 30 -14 53t-48 39.5t-56 21.5t-60 11v-281z" />
<glyph unicode="%" horiz-adv-x="1792" d="M55 938v3q0 20 0.5 38.5t5.5 64.5t14.5 84.5t30 87.5t48.5 85t74.5 65t103.5 39q102 20 190 -29q54 -30 92.5 -81.5t57.5 -114.5t27 -122.5t8 -123.5q0 -21 -0.5 -42t-8.5 -78t-22 -103.5t-44.5 -100t-72.5 -86.5q-73 -57 -184 -57q-127 0 -207 88q-113 127 -113 383z M264 922q0 -91 15 -164q14 -74 57 -103q21 -14 49 -14q67 0 94 107q19 85 19 186q0 102 -21 192q-24 85 -71 101q-22 6 -35 4q-59 -7 -86 -103q-21 -87 -21 -206zM430 0l768 1477l164 -86l-770 -1477zM1081 453q0 164 46.5 273.5t117.5 158.5q76 47 170 45q23 0 48 -5 t59 -17.5t69 -41t62 -69.5q82 -124 82 -344q0 -28 -3 -62t-15 -104.5t-46 -136.5t-86 -107q-68 -55 -180 -55q-68 0 -122.5 26t-87.5 62t-57 90t-34.5 94.5t-16 92.5t-6 66.5t-0.5 33.5zM1290 442q0 -80 17 -163q14 -74 57 -103q21 -14 47 -14q69 0 96 106q19 86 19 187 q0 102 -21 192q-24 85 -71 101q-22 6 -35 4q-61 -7 -88 -103q-21 -87 -21 -207z" />
<glyph unicode="&#x26;" horiz-adv-x="1409" d="M59 434q1 73 22.5 138t55.5 110.5t61.5 73t55.5 47.5q38 29 160 86q-30 49 -46.5 79.5t-32.5 78.5t-16 90q0 53 17 104q19 59 59 102t80 63.5t90 32.5t75 13.5t50 1.5q28 0 58.5 -4t82 -18t98.5 -50.5t77 -91.5q36 -65 36 -149q0 -152 -133 -258q-38 -30 -88 -56 q-29 -15 -49 -22q99 -151 117 -174l80 -111q2 5 9 20t8.5 18t7 15.5t6.5 16.5t5.5 15.5t6.5 18.5t6 20t7 25.5t7 28.5t8 35l256 -94q-40 -123 -65.5 -179.5t-89.5 -164.5q3 -3 8 -10.5t8 -10.5q26 -25 60 -36t67.5 -10t71.5 3v-231h-164q-105 0 -168 31q-33 16 -84 65 q-79 -44 -86 -47q-138 -63 -299 -63q-196 0 -326 98q-82 61 -126 152.5t-44 197.5zM373 444q0 -25 10 -61q7 -22 19.5 -44t35.5 -49t62 -44t88 -17q36 0 73.5 11.5t60 22.5t66.5 36l-247 379l-49 -33q-119 -79 -119 -201zM582 1149q0 -23 9.5 -47.5t19 -41.5t40.5 -67 q30 16 45.5 26t36 28.5t33.5 39.5q18 30 18 60q0 42 -29 65t-71 23q-41 0 -71.5 -23t-30.5 -63z" />
<glyph unicode="'" horiz-adv-x="319" d="M55 1522h211l-67 -623h-76z" />
<glyph unicode="(" horiz-adv-x="686" d="M63 639q0 195 61.5 380t176.5 339q114 152 283 282l118 -122q-94 -106 -137 -170q-198 -284 -198 -684q0 -270 87.5 -492t250.5 -367l-111 -143q-12 9 -29 22.5t-22 16.5q-149 124 -236 229q-244 300 -244 709z" />
<glyph unicode=")" horiz-adv-x="688" d="M-12 -217q92 104 139 170q197 287 197 684q0 270 -87.5 492.5t-248.5 365.5l110 143q2 -1 49 -39q152 -122 236 -229q246 -305 246 -708q0 -196 -61.5 -381t-178.5 -340q-108 -140 -283 -281z" />
<glyph unicode="*" horiz-adv-x="841" d="M33 1079l63 213l207 -61v215h221v-215l211 72l72 -209l-203 -70l125 -160l-174 -137l-135 174l-125 -174l-178 131l116 162z" />
<glyph unicode="+" horiz-adv-x="1482" d="M188 530v267h383v411h340v-411h383v-267h-383v-417h-340v417h-383z" />
<glyph unicode="," horiz-adv-x="512" d="M92 0v344h328v-281q0 -181 -75 -276t-251 -141v145q36 13 60 33.5t36.5 50t18 56.5t8.5 69h-125z" />
<glyph unicode="-" horiz-adv-x="770" d="M78 485v293h612v-293h-612z" />
<glyph unicode="." horiz-adv-x="512" d="M92 0v342h324v-342h-324z" />
<glyph unicode="/" horiz-adv-x="980" d="M33 0l622 1446h291l-622 -1446h-291z" />
<glyph unicode="0" horiz-adv-x="1150" d="M82 705q0 309 121 499q31 48 90 107q114 95 266 98q28 1 62.5 -1.5t93 -19t102.5 -47.5q55 -36 86 -75q47 -56 81 -133.5t49.5 -140t24 -139.5t9 -104t0.5 -63q0 -175 -43.5 -335t-146.5 -261q-126 -121 -314 -121q-176 0 -295 115q-90 89 -138 237t-48 384zM385 637 q0 -136 27 -242q43 -172 163 -172q60 0 97 41q36 39 57 126.5t26 156t5 137.5q0 240 -49 358q-52 117 -146 113q-31 -2 -57 -18q-32 -19 -54 -57t-40 -109q-29 -122 -29 -334z" />
<glyph unicode="1" horiz-adv-x="1150" d="M180 971l2 211l74 6q101 9 184 63q51 36 74 68q17 23 41 70h250v-1389h-332v1014q-55 -23 -76 -27q-65 -16 -217 -16z" />
<glyph unicode="2" horiz-adv-x="1150" d="M64.5 953.5q2.5 43.5 7.5 89.5t29 105.5t63 108.5q126 156 389 156q23 0 42.5 -1t62 -6t80 -18t80.5 -33t81.5 -55t65.5 -81q59 -97 59 -230q0 -215 -166 -409q-77 -89 -161 -160.5t-210 -165.5l541 8v-262h-952v242q27 22 78 61t73 57q82 68 170 146q56 48 91 81 t75.5 81t63 91.5t38 101.5t15.5 122t-12 104q-32 89 -129 89q-39 0 -80 -21q-36 -22 -54 -61t-18 -113q0 -37 8 -107l-329 19q-4 17 -1.5 60.5z" />
<glyph unicode="3" horiz-adv-x="1150" d="M63 467l320 27q0 -7 -1 -22.5t-1 -22.5q0 -127 70 -183q43 -37 100 -37q34 0 72 13q38 14 63 42t34.5 61.5t12 53t2.5 37.5q0 29 -7 55.5t-25.5 55t-58.5 46.5t-97 19q-43 0 -66 -2l2 236q1 0 12.5 -0.5l23 -1t27.5 0.5t29 3q61 10 94 53.5t33 106.5q0 40 -12 71 q-17 39 -54.5 62.5t-80.5 23.5q-75 0 -113 -57q-13 -21 -20 -48.5t-7.5 -43.5t-0.5 -51l-324 28q4 39 7 62t21.5 78t49.5 100q125 180 407 180q285 0 396 -174q57 -88 57 -199q0 -28 -5.5 -61.5t-30 -87.5t-66.5 -90q-19 -16 -47.5 -32t-52.5 -26.5t-25 -11.5 q67 -14 108 -37q74 -40 114 -115.5t40 -164.5q-1 -115 -59 -213t-156 -154q-77 -45 -172 -59q-64 -13 -139 -13q-207 0 -334 111q-83 73 -117 186q-23 75 -23 195z" />
<glyph unicode="4" horiz-adv-x="1150" d="M23 319l4 250l573 820h309v-842h185v-225h-185v-322h-323v319h-563zM258 547h330v205q0 48 2 102.5t5.5 121.5t4.5 103q-40 -79 -75.5 -135.5t-131.5 -195.5q-22 -34 -67.5 -100.5t-67.5 -100.5z" />
<glyph unicode="5" horiz-adv-x="1150" d="M59 436l324 13v-9v-15t0.5 -20t2 -24t5 -26t8 -27.5t11.5 -26.5t16.5 -25.5t22.5 -22t28 -17.5q35 -15 72 -15q71 0 117 53q53 64 53 205q0 124 -51 182t-125 58q-46 0 -77.5 -20.5t-45.5 -41.5q-15 -22 -23 -47l-282 47l84 727h796l-18 -262h-524l-35 -252q3 2 17 12 t22 15q82 45 182 45q76 0 152 -27q59 -22 106 -58.5t74 -80.5t45.5 -86t26 -87.5t10 -71.5t2.5 -50q0 -124 -49 -233q-17 -36 -39.5 -70t-63.5 -73.5t-90.5 -68t-123 -47.5t-157.5 -18q-36 0 -73.5 4t-97.5 22.5t-109.5 49.5t-97 91t-72.5 141q-23 76 -23 157z" />
<glyph unicode="6" horiz-adv-x="1150" d="M86 662q0 301 78 473q25 54 78 122q74 87 168 122.5t217 35.5q198 0 313 -121q47 -51 80 -127q20 -47 35 -129l-330 -34q0 1 0.5 10.5t0 16t-1.5 18.5t-4 22t-7.5 22t-12.5 23t-18 21q-34 30 -84 30q-35 0 -70 -18q-38 -20 -58 -51.5t-34 -79.5q-18 -60 -26 -119.5 t-11 -169.5q24 46 56 76q96 86 245 86q151 0 258 -103q123 -117 123 -321q0 -181 -90 -303q-45 -64 -106 -105q-122 -82 -301 -82q-148 0 -260 74q-238 158 -238 611zM438 442q0 -133 68 -190q39 -33 94 -33q42 0 82 23q86 49 86 202q0 156 -98 199q-47 16 -78 14 q-64 -5 -109 -56.5t-45 -158.5z" />
<glyph unicode="7" horiz-adv-x="1150" d="M70 1120v269h981v-252q-120 -143 -203 -279q-114 -188 -189 -428q-31 -98 -50.5 -187.5t-25 -128t-14.5 -114.5h-381q3 11 11.5 50t13 58t15 60t20.5 73t26 78.5t35 94.5q124 321 316 577q41 54 106 129h-661z" />
<glyph unicode="8" horiz-adv-x="1150" d="M80 397q0 186 156 289q32 20 92 43q-42 25 -62 41q-129 104 -129 272q0 82 39 162q20 39 49.5 73t76 66t117 51t156.5 19q87 0 164 -22q32 -10 61 -23.5t68.5 -42.5t68 -66t49 -96.5t20.5 -130.5q0 -157 -105 -246q-31 -25 -92 -57q67 -27 102 -48t66 -52q86 -92 86 -236 q0 -100 -33 -170q-19 -43 -54 -83.5t-89 -78.5t-136 -61t-180 -23q-36 0 -82.5 4.5t-130 31.5t-139.5 73q-50 41 -94.5 121t-44.5 190zM412 424q0 -55 14 -96q19 -49 56 -77t87 -28q48 0 88 23q38 24 56 62.5t18 117.5q0 95 -42.5 142.5t-100.5 52.5q-37 2 -80 -15 q-40 -18 -68 -62.5t-28 -119.5zM442 1010q0 -26 9 -66q23 -110 124 -110q53 0 91.5 36.5t38.5 120.5q0 11 -0.5 19.5t-3.5 34.5t-12 45.5t-23 40.5t-40 31.5t-59 8.5q-63 -4 -94 -49.5t-31 -111.5z" />
<glyph unicode="9" horiz-adv-x="1150" d="M66 924q0 190 102 317q35 46 94 88q122 82 301 82q150 0 260 -74q238 -158 238 -610q0 -311 -82 -485q-46 -91 -113 -152q-129 -117 -344 -117q-88 0 -159 23t-116 62.5t-71.5 76t-44.5 78.5q-23 51 -37 141l328 33v-9v-14.5t1 -15.5t2.5 -18.5t5 -19t8 -20t12 -18.5 t16.5 -18q33 -31 82 -31q34 0 69 17q66 37 93 131q19 57 26.5 115.5t12.5 172.5q-9 -16 -27 -41q-36 -44 -106.5 -82t-167.5 -38q-123 1 -219.5 70.5t-137.5 185.5q-26 81 -26 170zM379 946q0 -155 98 -198q35 -17 78 -15q64 3 109 54t45 159q0 134 -68 191q-38 32 -94 32 q-43 0 -82 -22q-86 -47 -86 -201z" />
<glyph unicode=":" horiz-adv-x="598" d="M176 0v348h328v-348h-328zM176 725v344h328v-344h-328z" />
<glyph unicode=";" horiz-adv-x="598" d="M174 -209q32 11 54.5 27t35 32.5t20.5 43.5t11 48t6 58h-125v350h328v-325q0 -44 -19 -111q-34 -116 -109.5 -176t-201.5 -88v141zM176 725v348h328v-348h-328z" />
<glyph unicode="&#x3c;" horiz-adv-x="1482" d="M229 528v310l953 454v-317l-643 -281l645 -295l-2 -333z" />
<glyph unicode="=" horiz-adv-x="1482" d="M205 279v268h1075v-268h-1075zM205 721v270h1075v-270h-1075z" />
<glyph unicode="&#x3e;" horiz-adv-x="1482" d="M289 958l2 334l952 -463v-311l-952 -455v320l643 281z" />
<glyph unicode="?" d="M125 1096q0 1 4.5 13.5t10.5 27.5t14 33.5t17.5 38t18.5 34.5q143 232 498 232q127 0 225 -31q69 -21 122 -55.5t83 -71t49 -80t25 -78t6 -67.5q0 -114 -61 -205q-40 -56 -152 -137q-45 -33 -139 -99q-80 -59 -101 -84q-16 -22 -26 -69l-260 2q0 84 18 133 q16 41 51.5 79.5t70.5 63t83 57.5t72 54q16 12 34 30t41 59.5t23 82.5q0 31 -6 55q-35 129 -184 129q-128 0 -197 -96q-24 -34 -41 -84q-6 -29 -6 -64zM430 0v348h324v-348h-324z" />
<glyph unicode="@" horiz-adv-x="1742" d="M84 485q0 159 47 308t133.5 268.5t201.5 210t258 139.5t296 49q276 0 445 -164.5t169 -433.5q0 -186 -67.5 -354t-180.5 -269.5t-237 -101.5q-75 0 -124 36.5t-64 102.5q-109 -139 -256 -139q-131 0 -208 93t-77 251q0 156 61 292.5t163.5 217t219.5 80.5q56 0 99 -18 q36 -13 59.5 -34.5t56.5 -70.5l21 82h184l-67 -325q-58 -282 -58 -338q0 -58 43 -58q35 0 88 56q78 85 125 219t47 272q0 203 -122 321.5t-334 118.5q-149 0 -288.5 -65.5t-241.5 -174t-163 -257t-61 -307.5q0 -266 167.5 -425t448.5 -159q365 0 670 299l94 -127 q-87 -79 -135.5 -116.5t-112.5 -76.5q-240 -141 -516 -141q-167 0 -321 58.5t-262 160.5q-201 195 -201 520zM631 496q0 -82 35 -129.5t96 -47.5q42 0 86.5 29t77.5 80q37 52 61.5 132.5t24.5 148.5v8q0 78 -38 125t-100 47q-95 0 -169 -119.5t-74 -273.5z" />
<glyph unicode="A" horiz-adv-x="1449" d="M-2 0l537 1446h376l533 -1446h-385l-72 231h-532l-72 -231h-385zM539 492h366l-188 610z" />
<glyph unicode="B" horiz-adv-x="1449" d="M139 0v1446h594q78 0 115 -2q141 -6 241 -37t166 -119q70 -89 70 -213q0 -66 -19.5 -120.5t-52 -89t-59.5 -54t-57 -33.5q-50 -20 -121 -35q22 -2 57 -10q206 -38 275 -180q32 -67 32 -150q0 -30 -6 -63t-22.5 -78t-53.5 -91t-90 -81q-81 -54 -176 -72t-221 -18h-672z M483 262h252q98 0 151.5 14t88.5 50q39 44 39 110q0 71 -30.5 109.5t-70.5 52.5q-38 14 -116 14h-314v-350zM483 874h273q31 0 82 7q95 16 120 84q13 33 13 67q0 102 -94 133q-33 11 -82 11h-312v-302z" />
<glyph unicode="C" horiz-adv-x="1437" d="M80 725q0 303 176 516q25 31 52 58.5t76 64.5t103 63.5t131.5 45t161.5 18.5q147 0 281.5 -58.5t228.5 -166.5q48 -55 101 -150l-285 -141q-24 50 -47 80q-13 19 -32.5 39t-52 44.5t-79.5 40t-98 15.5q-129 0 -219 -86q-55 -52 -96.5 -146.5t-41.5 -228.5q0 -53 6 -98 q31 -244 191 -334q69 -41 160 -41q30 0 57.5 5t49.5 11.5t44 19.5t37 23t32.5 27.5t26.5 27.5t22.5 29.5t17.5 26t14.5 24.5t11.5 19l287 -145q-54 -84 -94 -133q-32 -35 -73 -69.5t-107.5 -76t-158 -67t-190.5 -25.5q-156 0 -295 61q-78 35 -141.5 87.5t-104.5 107t-71 120 t-45 119.5t-24 113.5t-11 93t-2 66.5z" />
<glyph unicode="D" horiz-adv-x="1492" d="M137 0v1446h461q88 0 131 -2q155 -10 257 -41q131 -41 222 -115q62 -46 115 -131q109 -171 109 -422q0 -332 -166 -524q-48 -54 -130.5 -107.5t-199.5 -80.5q-102 -23 -231 -23h-568zM502 291h110q102 0 181.5 14.5t142.5 61.5q133 99 133 356q0 96 -17 167t-65 132 q-57 71 -141 98q-10 3 -20.5 6t-19 5t-20.5 3.5t-19 2.5t-20.5 2t-18.5 1.5t-20 0.5h-19.5h-21.5h-20h-145v-850z" />
<glyph unicode="E" horiz-adv-x="1323" d="M139 0v1446h1069v-279h-708v-264h661v-274h-661v-344h774v-285h-1135z" />
<glyph unicode="F" horiz-adv-x="1280" d="M137 0v1446h1110v-277h-749v-305h690v-278h-690v-586h-361z" />
<glyph unicode="G" horiz-adv-x="1536" d="M82 723q0 46 4 94.5t25 135.5t56 161.5t105.5 155t165.5 133.5q155 92 357 92q294 0 512 -195q55 -49 125 -139l-275 -166q-44 73 -92 115q-96 88 -244 88q-119 0 -198 -51q-76 -48 -128.5 -151.5t-52.5 -262.5q0 -25 2 -54t10.5 -86.5t31 -115t57.5 -100.5 q34 -41 104 -80q88 -39 174 -39q70 0 125 18q23 8 46 19.5t58.5 43t55.5 71.5q17 33 31 118h-324v275h629v-803h-283v133q-58 -52 -88 -72q-141 -94 -338 -94q-146 0 -278 62q-95 46 -168 122t-117 168.5t-66 194.5t-22 209z" />
<glyph unicode="H" horiz-adv-x="1536" d="M139 0v1446h367v-522h526v522h363v-1446h-363v616h-528v-616h-365z" />
<glyph unicode="I" horiz-adv-x="641" d="M137 0v1446h361v-1446h-361z" />
<glyph unicode="J" horiz-adv-x="811" d="M33 0v293h61q84 0 129 7.5t66 31.5q26 28 26 90v1024h363v-1043v-36.5v-38.5t-1 -34.5t-3.5 -38.5t-6 -33.5t-9.5 -36t-13.5 -31.5t-19 -33.5t-25.5 -28.5q-32 -32 -70.5 -52t-85.5 -28t-80.5 -10t-89.5 -2h-241z" />
<glyph unicode="K" horiz-adv-x="1449" d="M139 0v1446h344v-590l541 590h436l-512 -537l551 -909h-407l-385 655l-224 -231v-424h-344z" />
<glyph unicode="L" horiz-adv-x="1110" d="M139 0v1446h361v-1141h565v-305h-926z" />
<glyph unicode="M" horiz-adv-x="1878" d="M139 0v1446h529l272 -1012l268 1012h529v-1446h-348l28 1163l-321 -1163h-314l-319 1163l29 -1163h-353z" />
<glyph unicode="N" horiz-adv-x="1492" d="M137 0v1446h355l528 -907l-14 907h346v-1446h-355l-524 895l12 -895h-348z" />
<glyph unicode="O" horiz-adv-x="1622" d="M86 729q0 266 137 467q26 39 56 73.5t82.5 77t112 72.5t145.5 51t182 21q97 0 184 -19.5t150.5 -52.5t106 -64t75.5 -65q101 -104 159 -263.5t58 -313.5q0 -171 -72 -334.5t-202 -269.5q-188 -152 -455 -152q-46 0 -94 6t-123 24.5t-153 64t-142 112.5q-55 58 -96 130 t-61.5 132t-32.5 126.5t-14.5 103.5t-2.5 73zM442 733q0 -237 121 -366q97 -105 244 -105q54 0 122.5 23t127.5 86q107 115 114 317q1 15 1 30q0 104 -25 186q-28 94 -68 149q-51 71 -139 108q-66 27 -139 27q-83 0 -162 -41q-101 -57 -149 -171t-48 -243z" />
<glyph unicode="P" horiz-adv-x="1409" d="M137 0v1446h717q118 0 209 -23.5t168 -89.5q40 -35 65 -71q31 -46 55.5 -122.5t24.5 -172.5q0 -163 -86 -287q-39 -56 -90 -95.5t-100 -61t-115.5 -33t-118 -14.5t-125.5 -3h-241v-473h-363zM500 741h219q85 0 123 7q176 28 176 215v6q0 73 -39 131q-20 28 -48.5 46 t-67 24.5t-63.5 8t-69 1.5h-231v-439z" />
<glyph unicode="Q" horiz-adv-x="1622" d="M86 729q0 320 193 535q201 225 528 225q283 0 481 -172q121 -104 184.5 -259.5t63.5 -324.5q0 -198 -76 -358q-23 -52 -67 -121q49 -44 67 -55q78 -54 213 -74l-106 -258q-78 13 -129 31q-55 19 -111.5 53t-155.5 108q-114 -55 -188.5 -77.5t-175.5 -22.5q-187 0 -346 80 q-74 37 -133.5 90t-97.5 106t-66.5 116.5t-43 115t-22.5 108.5t-10 89.5t-2 64.5zM446 729q0 -26 1 -49t9.5 -75.5t24 -95.5t48.5 -93.5t79 -85.5q91 -68 209 -68q79 0 150 35q43 21 78 55t56.5 68t37 77.5t23 75.5t11.5 69.5t4.5 52.5t0.5 32q0 98 -27.5 183t-56.5 126 q-33 50 -79 83t-92 45.5t-78.5 16t-58.5 1.5q-108 -7 -188 -68q-77 -60 -114.5 -166.5t-37.5 -218.5z" />
<glyph unicode="R" horiz-adv-x="1449" d="M137 0v1446h651q82 0 123 -2q295 -18 408 -225q57 -111 57 -242q0 -188 -112 -295q-30 -30 -68 -53q-42 -22 -117 -51l334 -578h-397l-289 516h-225v-516h-365zM500 784h299q52 0 96 15q121 40 121 186q0 53 -16.5 92t-38 57.5t-54.5 29.5t-53 12.5t-47 1.5h-307v-394z " />
<glyph unicode="S" horiz-adv-x="1409" d="M18 262l275 172q1 -1 8.5 -9t14.5 -15.5t18.5 -18t21.5 -18.5q69 -57 165.5 -89t189.5 -32q65 0 112 14q9 2 29 10t51 25.5t52.5 49t21.5 69.5q0 28 -10 49.5t-32.5 36.5t-42.5 25t-57 17.5t-58.5 11t-64 8.5t-57.5 7q-93 11 -204 37q-186 48 -273 152q-41 47 -61 106 q-19 63 -19 127q0 46 8 101q24 135 125 231q161 152 451 152q264 0 477 -144q56 -38 160 -129l-266 -190q-66 65 -117 99t-127 59q-90 20 -135 20q-102 0 -158.5 -48t-56.5 -106q0 -45 30 -75q14 -15 31.5 -25.5t46 -17.5t48.5 -10t66.5 -9t72.5 -10q92 -13 241 -47 q238 -47 312 -223q28 -76 28 -156q0 -120 -57 -225q-126 -229 -455 -267q-78 -10 -145 -10q-331 0 -545 174q-47 40 -115 121z" />
<glyph unicode="T" horiz-adv-x="1150" d="M14 1161v285h1116v-285h-374v-1161h-365v1161h-377z" />
<glyph unicode="U" horiz-adv-x="1492" d="M127 639v807h365v-901q0 -100 12.5 -145t54.5 -78q73 -56 193 -56q118 0 178 53q32 28 48 70t18.5 73t2.5 85v899h363v-807q0 -200 -39 -311q-25 -69 -66.5 -126t-87.5 -93.5t-101.5 -64t-102 -42t-96 -23t-78 -10.5t-52.5 -2q-37 0 -80 5t-114 20t-144.5 53.5 t-130.5 95.5q-50 50 -80.5 108t-43.5 129t-16 123t-3 138z" />
<glyph unicode="V" horiz-adv-x="1366" d="M-2 1446h385l299 -1028l297 1028h385l-502 -1446h-368z" />
<glyph unicode="W" horiz-adv-x="2004" d="M0 1446h362l213 -995l263 995h321l271 -995l210 995h361l-367 -1446h-372l-261 926l-262 -926h-372z" />
<glyph unicode="X" horiz-adv-x="1579" d="M0 0l559 784l-481 662h428l278 -436l283 436h420l-477 -662l565 -784h-416l-371 547l-374 -547h-414z" />
<glyph unicode="Y" horiz-adv-x="1449" d="M4 1446h414l311 -490l309 490h412l-547 -762v-684h-356v674z" />
<glyph unicode="Z" horiz-adv-x="1280" d="M10 0v272l801 893h-733v281h1167v-283l-788 -878h784v-285h-1231z" />
<glyph unicode="[" horiz-adv-x="598" d="M104 -295v1890h459v-172h-186v-1546h186v-172h-459z" />
<glyph unicode="\" horiz-adv-x="980" d="M33 1446h291l622 -1446h-291z" />
<glyph unicode="]" horiz-adv-x="598" d="M35 -123h186v1546h-186v172h459v-1890h-459v172z" />
<glyph unicode="^" horiz-adv-x="1482" d="M150 575l438 871h319l426 -871h-338l-241 576l-248 -576h-356z" />
<glyph unicode="_" horiz-adv-x="1019" d="M-25 -248h1065v-225h-1065v225z" />
<glyph unicode="`" horiz-adv-x="555" d="M12 1475h379l152 -273h-207z" />
<glyph unicode="a" horiz-adv-x="1193" d="M90 297q0 55 18.5 104t44.5 81t59.5 59.5t55.5 40t41 20.5q86 38 428 100v60q0 129 -121 129q-115 0 -151 -78q-9 -18 -14 -47h-316q0 2 1 14.5t1.5 17t2.5 18.5t4 21.5t5.5 22t8 24t10.5 23.5t13.5 25.5t17.5 24t22 24.5q86 84 242 109q61 8 137 8q62 0 120.5 -8.5 t119.5 -28t109.5 -58.5t74.5 -94q23 -56 23 -118v-625q0 -73 5.5 -105.5t24.5 -60.5h-309v96q-56 -39 -66 -45q-116 -80 -262 -80q-68 0 -124.5 16.5t-93 45t-59.5 56t-38 58.5q-35 68 -35 150zM399 311q0 -23 13 -49q35 -59 108 -59q61 0 121 43q33 24 53.5 54t29 68 t11 67.5t2.5 76.5l-202 -68q-27 -9 -37 -14q-99 -42 -99 -119z" />
<glyph unicode="b" horiz-adv-x="1280" d="M141 0v1446h308v-475q37 39 57 53q99 76 248 76q161 0 284 -107q170 -146 170 -438q0 -204 -65 -332q-14 -28 -32.5 -56t-54 -65t-77 -64.5t-104 -47t-132.5 -19.5q-148 0 -249 80q-31 22 -62 62l2 -113h-293zM440 543q0 -150 47 -232q17 -34 62 -67q57 -39 127 -39 q63 0 105.5 29t62.5 61q25 38 39.5 102.5t16 95t1.5 54.5q0 71 -18 145q-6 23 -11 38.5t-21.5 45.5t-36.5 48q-20 19 -58 33q-31 12 -68 12q-8 0 -16 -1q-103 -5 -167.5 -81.5t-64.5 -243.5z" />
<glyph unicode="c" horiz-adv-x="1103" d="M68 526q0 147 53 271q34 80 88 139t105.5 89.5t113 48.5t99.5 22t77 4q259 0 416 -197q21 -28 41 -61l-234 -133q-8 23 -34 61q-13 17 -32 34t-59 35.5t-84 18.5q-64 0 -114 -37q-38 -28 -63.5 -74t-34.5 -93.5t-12 -73t-3 -43.5q0 -76 26.5 -153t76.5 -118 q64 -51 135 -51q46 1 86.5 20.5t58.5 38t31 37.5q20 32 31 64l237 -123q-46 -69 -74 -102q-50 -58 -109.5 -98t-116.5 -57.5t-97.5 -23.5t-77.5 -6q-127 0 -250 60q-144 70 -212 201t-68 300z" />
<glyph unicode="d" d="M63 528q0 26 1 48t6 71.5t18.5 93.5t34.5 95.5t58 98.5t85 83q102 80 244 80q52 0 99 -11t85 -32.5t54.5 -33t42.5 -32.5v457h307v-1446h-287l-2 100q-40 -40 -61 -55q-100 -74 -228 -74q-35 1 -71.5 7.5t-88 24.5t-103.5 58.5t-93 98.5q-46 67 -73.5 152t-27.5 216z M383 535q0 -165 59 -252q52 -78 144 -78q62 0 110 39q103 81 103 291q0 163 -54 245q-9 14 -21 27t-32.5 28t-50 22t-63.5 3q-87 -12 -140 -90q-55 -81 -55 -235z" />
<glyph unicode="e" horiz-adv-x="1193" d="M66 514q0 259 137 418q30 33 61 58.5t80 53t118 43t152 15.5q40 0 79.5 -5t103.5 -22t126.5 -60t108.5 -108q19 -27 35.5 -56.5t28 -60t20.5 -58.5t14.5 -59.5t9.5 -54t6 -50.5t3 -41.5t1.5 -35t0.5 -22.5h-764q0 -44 4 -63q19 -95 82.5 -149t157.5 -54q54 0 102 18 q15 5 30 13t27 16t23.5 19.5l20 20t18 21t15 20.5t12.5 20t9.5 17l7.5 15l5 10l238 -123q-51 -75 -90 -120q-45 -49 -99.5 -86t-101 -56t-98 -30.5t-82.5 -14t-62 -2.5q-102 0 -192 29q-172 54 -260 194t-88 330zM389 666h436q-9 80 -36 122q-30 45 -80 68q-45 21 -97 21 q-44 0 -80.5 -14.5t-60 -37t-36.5 -41t-21 -36.5q-16 -36 -25 -82z" />
<glyph unicode="f" horiz-adv-x="724" d="M20 852v192h168v134q0 96 35 159q25 47 76 78t103.5 42t107.5 11q80 0 188 -18v-238q-133 0 -153 -8q-32 -12 -39 -45q-6 -19 -6 -115h211v-192h-209v-852h-314v852h-168z" />
<glyph unicode="g" d="M63 565q0 102 25 189t65.5 144.5t83 95t87.5 57.5q85 36 194 36q129 0 225 -65q25 -16 60 -51v98h297v-1026q0 -28 -4 -86q-19 -167 -148 -252q-137 -88 -379 -88q-134 0 -234 34.5t-155 80.5q-28 22 -47 51q-10 14 -17.5 28.5t-13 30t-9.5 28.5t-6.5 28.5t-4 25.5 t-2 24.5t-0.5 20.5v18v13h326q3 -33 4.5 -46t10 -33t25.5 -38q49 -57 154 -57q94 0 141 43q22 19 33 48t12.5 49.5t1.5 58.5l-2 116q-56 -37 -71 -45q-104 -47 -209 -47q-57 0 -113 13t-117.5 49.5t-107 92t-75.5 149t-30 212.5zM389 565q0 -28 4 -78q22 -198 197 -198 q79 0 125 41q71 64 71 237q0 141 -34 201q-19 34 -64 60q-40 24 -99 24h-14q-53 0 -96 -29q-90 -64 -90 -258z" />
<glyph unicode="h" d="M139 0v1446h316l2 -490q1 1 8 8.5l14 15t18 17.5t21 17q108 84 242 84q164 0 260 -107q36 -39 51 -86q29 -76 29 -203v-702h-314v559v14q0 56 -2 87.5t-19.5 75.5t-51.5 67q-39 26 -88 26q-54 0 -95 -28q-48 -33 -61.5 -90t-13.5 -179v-532h-316z" />
<glyph unicode="i" horiz-adv-x="598" d="M141 0v1069h314v-1069h-314zM141 1202v244h314v-244h-314z" />
<glyph unicode="j" horiz-adv-x="598" d="M0 -360l2 249q13 -1 25 -1q84 0 102 38q12 23 12 113v1030h312v-1057q0 -40 -4 -114q-12 -142 -87.5 -202.5t-218.5 -60.5q-20 0 -143 5zM141 1204v242h312v-242h-312z" />
<glyph unicode="k" horiz-adv-x="1193" d="M137 0v1446h309v-744l347 367h378l-368 -381l416 -688h-365l-274 461l-136 -129v-332h-307z" />
<glyph unicode="l" horiz-adv-x="598" d="M141 0v1446h314v-1446h-314z" />
<glyph unicode="m" horiz-adv-x="1835" d="M137 0v1069h312l2 -111q29 37 53 56q104 84 248 84q132 0 213 -51q30 -18 86 -74q48 40 75 57q109 68 242 68q184 0 274 -117q36 -44 45 -100.5t9 -184.5v-696h-314v561q0 72 -1 100t-7 63t-20 56q-18 30 -51 46t-68 16q-97 0 -139 -76q-12 -21 -17 -50.5t-5.5 -48.5 t-0.5 -85v-582h-313v635q0 77 -13.5 116t-48.5 62q-41 27 -92 27q-55 0 -90 -27q-31 -23 -46.5 -61.5t-18 -66.5t-2.5 -75v-610h-312z" />
<glyph unicode="n" d="M143 0v1067h320v-92q2 2 10 11t17.5 18t21.5 18q100 74 252 74q110 0 190 -43q47 -25 77 -59.5t43.5 -80t17.5 -85t4 -97.5v-731h-316v604q0 119 -12 154q-33 86 -143 86q-68 0 -107 -33q-37 -29 -48 -78.5t-11 -154.5v-578h-316z" />
<glyph unicode="o" horiz-adv-x="1280" d="M66 537q0 232 124 381q31 37 71.5 68.5t99.5 61.5t142 44q59 10 124 10q27 0 55 -2q205 -10 336 -115q97 -79 146.5 -197.5t49.5 -252.5q0 -86 -18.5 -161.5t-48.5 -129.5t-59.5 -90t-61.5 -62q-150 -125 -387 -125q-31 0 -70.5 4.5t-102.5 18t-129.5 47.5t-117.5 84 q-61 59 -107 162.5t-46 253.5zM383 539q0 -124 55 -215q71 -105 205 -105q123 0 187.5 87.5t64.5 217.5q0 207 -113 287q-59 41 -155 41q-67 0 -119 -31q-50 -29 -87.5 -101.5t-37.5 -180.5z" />
<glyph unicode="p" d="M131 -371v1440h281l2 -104q28 35 45 47q97 82 254 82q194 0 321 -136q144 -152 144 -421q-2 -214 -99 -365q-39 -60 -86 -99t-82 -55q-83 -38 -198 -38q-78 0 -129.5 20t-132.5 70v-441h-320zM436 532q0 -155 56 -239q26 -37 61 -57q41 -29 100 -29q110 0 170 110 q51 92 51 224q0 176 -73 262q-40 46 -94 61q-20 6 -45 6q-95 0 -160.5 -87t-65.5 -251z" />
<glyph unicode="q" d="M63 522q0 28 3 63t12.5 93.5t34 122t59.5 114.5q61 87 155 135t199 48q89 0 150.5 -28t134.5 -93v92h287v-1438h-316l-2 445q-38 -30 -57 -41q-101 -58 -217 -58q-122 0 -224 66t-157 176q-32 72 -45 133q-17 74 -17 170zM375 539q0 -63 18 -138l5.5 -16.5t11.5 -28 t19.5 -38.5t26.5 -37.5t35 -36t44.5 -23.5t54.5 -10q92 0 153.5 87t61.5 247q0 148 -52.5 231t-134.5 94q-12 2 -23 2q-41 0 -79 -20q-50 -25 -82 -70q-30 -44 -44.5 -111.5t-14.5 -131.5z" />
<glyph unicode="r" horiz-adv-x="768" d="M137 0v1069h305v-111q2 1 11.5 9.5t13 11.5t13.5 10.5t17.5 12t18.5 11.5t23.5 13t27.5 12q79 32 185 43v-278l-105 -17q-1 0 -13.5 -2t-24.5 -4.5t-29.5 -6.5t-30.5 -9q-59 -20 -78.5 -57.5t-19.5 -104.5v-602h-314z" />
<glyph unicode="s" horiz-adv-x="1067" d="M-4 178l201 180q37 -37 57 -51q55 -43 122.5 -69.5t131.5 -26.5q34 0 78 10q44 9 77 32.5t33 63.5q-1 25 -12 41.5t-47 28t-52.5 15t-76.5 12.5q-5 1 -8 1.5t-7 1t-8 1.5q-168 28 -254 71.5t-127 122.5q-32 63 -32 133q0 82 45 160q45 81 145.5 140t261.5 59 q206 0 387 -103q34 -20 88 -57l-194 -180q-38 30 -57 41q-45 28 -103.5 46.5t-107.5 18.5q-59 0 -101 -18q-49 -23 -49 -64q0 -29 29 -51q14 -9 38.5 -16t63.5 -15t41 -8l141 -30q318 -69 318 -322q0 -102 -51 -178q-66 -99 -192 -148t-261 -49q-42 0 -93 5.5t-139 31.5 t-159 70q-51 32 -127 100z" />
<glyph unicode="t" horiz-adv-x="724" d="M23 852v192h155v334h311v-336h209v-192h-209v-479q0 -70 9 -86q18 -35 73 -35q19 0 56 1t55 1v-244q-80 -16 -166 -16q-45 0 -65 2q-1 0 -15.5 0.5t-23.5 1.5t-26.5 3.5t-32 7t-32 11t-34 17t-31.5 24.5q-28 25 -45 55t-23.5 70.5t-8 66.5t-1.5 74v7v6v514h-155z" />
<glyph unicode="u" d="M131 404v28v637h318v-666q0 -62 10 -95.5t49 -57.5q45 -25 92 -25q68 0 111.5 30.5t56.5 66.5q12 32 12 81v666h314v-1069h-316v100q-31 -34 -47 -47q-40 -31 -108.5 -57.5t-155.5 -26.5q-143 0 -227 66q-32 25 -54 61.5t-32.5 67.5t-16 82t-6 77t-0.5 81z" />
<glyph unicode="v" horiz-adv-x="1024" d="M-2 1069h334l190 -725l176 725h324l-346 -1069h-330z" />
<glyph unicode="w" horiz-adv-x="1622" d="M0 1069h332l149 -747l162 747h336l147 -754l166 754h326l-320 -1069h-342l-157 713l-160 -713h-346z" />
<glyph unicode="x" horiz-adv-x="1067" d="M0 0l362 580l-323 489h356l142 -272l151 272h338l-324 -500l363 -569h-336l-203 332l-178 -332h-348z" />
<glyph unicode="y" horiz-adv-x="1024" d="M0 1069h336l176 -766l176 766h336l-377 -1155q-23 -70 -45 -115.5t-59 -85.5q-48 -49 -97.5 -65.5t-126.5 -16.5h-227v252h144q51 0 74.5 23t23.5 55q0 29 -23 102q-20 66 -30 101z" />
<glyph unicode="z" horiz-adv-x="1110" d="M70 0v236l577 591h-516v242h916v-242l-570 -583h570v-244h-977z" />
<glyph unicode="{" horiz-adv-x="649" d="M23 561v178q72 5 114 29q37 22 49.5 60.5t12.5 127.5v316q0 115 14 170q13 53 45 88q39 42 87.5 57t146.5 15h131v-172h-33q-58 0 -84 -33q-19 -19 -25 -43q-8 -44 -8 -146v-284q0 -126 -34.5 -182.5t-135.5 -94.5q38 -11 56.5 -20t41.5 -29q41 -35 56.5 -83.5 t15.5 -141.5v-283q0 -106 10 -145q9 -37 40 -57.5t77 -20.5h25v-170h-131q-102 0 -150.5 14.5t-85.5 57.5q-32 35 -45 88q-14 63 -14 170v317q0 110 -21 148q-19 32 -54 47.5t-101 21.5z" />
<glyph unicode="|" horiz-adv-x="524" d="M125 -293v1888h272v-1888h-272z" />
<glyph unicode="}" horiz-adv-x="649" d="M25 -133h32q60 0 86 33q17 20 23 45q8 31 8 143v285q0 126 34.5 182t135.5 94q-56 17 -96 49q-41 35 -57.5 84.5t-16.5 141.5v282q0 115 -8 146q-11 37 -41.5 57.5t-75.5 20.5h-24v172l131 -3q103 -2 150 -15.5t83 -55.5q35 -38 47 -88q15 -56 15 -170l-2 -318 q0 -107 22 -147q18 -31 53.5 -47.5t102.5 -22.5v-176q-73 -7 -117 -31q-35 -20 -48 -58.5t-13 -127.5l2 -317q0 -112 -15 -168q-12 -52 -47 -90q-37 -42 -85 -57t-146 -15h-133v172z" />
<glyph unicode="~" horiz-adv-x="1482" d="M143 707q36 50 58 74t53 50q93 80 215 80q50 0 101.5 -15t146.5 -58l117 -54q70 -32 100 -41.5t61 -9.5q72 0 135 47q47 34 115 113l94 -266q-47 -58 -77 -87t-72 -57q-91 -59 -189 -59q-47 0 -101 17t-146 61l-72 35q-127 61 -213 61q-38 0 -68 -12q-38 -14 -68 -39.5 t-75 -85.5l-18 -25z" />
<glyph unicode="&#xa1;" horiz-adv-x="598" d="M84 0v420l96 532h137l93 -518v-434h-326zM84 1102v344h326v-344h-326z" />
<glyph unicode="&#xa2;" horiz-adv-x="1110" d="M66 514q-1 142 43 255.5t113 181.5t159 106q68 28 166 35v229h158v-231q75 -12 136 -38.5t106 -65t72 -69.5t58 -75l-233 -135q-39 69 -68 95.5t-71 39.5v-619q47 12 79 44t68 106l233 -121q-19 -32 -31 -50t-41.5 -54.5t-58.5 -61t-74 -51.5t-96 -43q-30 -9 -82 -19 v-243h-155v239q-88 9 -162 38.5t-123 67.5t-87 87.5t-58.5 94.5t-32.5 93q-18 71 -18 164zM391 524q1 -81 25.5 -144t60.5 -99q31 -31 70 -50v611q-70 -28 -113.5 -114.5t-42.5 -203.5z" />
<glyph unicode="&#xa3;" horiz-adv-x="1409" d="M33 219q0 48 18 90q32 69 111.5 118.5t210.5 49.5q50 0 129 -10q-40 83 -86 145h-297v201h157q-11 14 -16 25q-57 102 -57 209q0 30 6.5 61.5t22.5 72t52 81.5t87 73q139 90 407 90q24 0 41.5 -0.5t73 -7t99 -18t97 -38t89.5 -63.5q37 -38 61 -94t32.5 -114t10.5 -85.5 t2 -48.5l-313 -22q0 71 -19 129q-39 112 -187 111h-5q-141 0 -191 -84q-22 -33 -22 -82q0 -36 16 -75t30 -59.5t44 -60.5h319v-201h-184q39 -75 48 -133q5 -31 5 -63q0 -25 -8 -88q6 -4 18.5 -13.5t18.5 -13.5q36 -29 55 -38t43 -9q57 0 80 57q17 46 23 174l297 -22 q-3 -68 -7 -109.5t-15.5 -104t-35.5 -111t-61 -83.5q-67 -67 -176 -67q-60 0 -127 25.5t-104 49t-109 72.5q-17 -26 -55 -61q-120 -105 -306 -105q-50 0 -102 11q-21 5 -40 11t-55 25t-61 43t-45 66.5t-20 93.5zM256 227q1 -38 29.5 -59t66.5 -21q35 1 70 19t55 45 q11 16 21 37t10 26q-1 0 -9.5 4t-17 7.5t-22.5 8.5t-27.5 8.5t-30 6t-30.5 2.5q-55 0 -85 -26.5t-30 -57.5z" />
<glyph unicode="&#xa4;" horiz-adv-x="1406" d="M57 219l166 164q-96 133 -96 309q0 91 21.5 163.5t72.5 150.5l-160 161l170 170l160 -159q137 92 316 92q86 0 156.5 -21t150.5 -71l164 161l172 -172l-164 -161q50 -84 71 -155t21 -157q0 -88 -21.5 -161t-72.5 -152l164 -166l-172 -170l-164 166q-87 -52 -155 -72 t-155 -20q-89 0 -160 21.5t-151 72.5l-164 -164zM446 694q0 -112 75.5 -188t185.5 -76q106 0 180 76.5t74 183.5q0 115 -74 193t-182 78q-109 0 -184 -77.5t-75 -189.5z" />
<glyph unicode="&#xa5;" horiz-adv-x="1449" d="M4 1417h414l311 -483l309 483h412l-354 -483h174v-221h-336l-31 -43v-99h367v-221h-367v-350h-356v350h-369v221h369v88l-39 54h-330v221h172z" />
<glyph unicode="&#xa6;" horiz-adv-x="524" d="M123 -295v821h274v-821h-274zM123 770v823h274v-823h-274z" />
<glyph unicode="&#xa7;" d="M43 606q0 187 207 314q-41 47 -59.5 87t-18.5 95q0 99 61 176q106 135 340 135q145 0 272.5 -44.5t284.5 -131.5l-198 -162q-100 52 -180.5 80.5t-163.5 28.5q-17 0 -33.5 -2.5t-35.5 -8.5t-30.5 -18.5t-11.5 -30.5q0 -10 3.5 -20t8.5 -17t15 -15t16 -12.5t19.5 -11 t19 -9t20.5 -8.5t17 -7q25 -12 186 -86q157 -73 209 -104q177 -107 205 -251q6 -29 6 -61q0 -103 -53 -182t-148 -150q35 -47 52.5 -86.5t17.5 -87.5q0 -59 -35 -127q-52 -91 -146.5 -136.5t-205.5 -45.5q-268 0 -575 189l198 163q79 -52 173.5 -87t176.5 -35q39 0 76 15.5 t37 49.5q0 25 -31 51t-82.5 49t-116.5 51.5t-133.5 58t-133.5 70.5t-116.5 85.5t-82.5 106.5t-31 132zM326 659q0 -56 51 -104q12 -11 34 -24.5t51.5 -28t52.5 -25t55.5 -25t41.5 -18.5q105 -48 222 -115q40 38 62 72.5t22 77.5q0 27 -16 53.5t-37 45t-57 40t-60 33t-63 29 t-50 22.5q-61 29 -217 109q-92 -57 -92 -142z" />
<glyph unicode="&#xa8;" horiz-adv-x="555" d="M-141 1223v254h321v-254h-321zM373 1223v254h323v-254h-323z" />
<glyph unicode="&#xa9;" horiz-adv-x="1685" d="M115 725q0 200 97 367.5t264.5 264.5t367.5 97q196 0 364 -96t266.5 -261t98.5 -358q0 -157 -56 -295t-152.5 -236t-232.5 -155t-290 -57q-198 0 -365.5 97t-264.5 264.5t-97 367.5zM215 723q0 -175 83.5 -322.5t228 -233t315.5 -85.5q169 0 314.5 85.5t231 230.5 t85.5 313q0 184 -82.5 334.5t-227 236.5t-319.5 86q-171 0 -316 -86.5t-229 -235t-84 -323.5zM410 729q0 209 125 343t319 134q108 0 187.5 -37.5t158.5 -126.5l-141 -163q-56 63 -98.5 85.5t-106.5 22.5q-94 0 -151.5 -70.5t-57.5 -187.5q0 -115 57.5 -184.5t151.5 -69.5 q57 0 99.5 22.5t99.5 82.5l147 -170l-59 -60q-47 -47 -125.5 -75.5t-161.5 -28.5q-196 0 -320 134.5t-124 348.5z" />
<glyph unicode="&#xaa;" horiz-adv-x="681" d="M76 1047q0 69 49 118q15 15 34.5 27t33 19t40.5 14t35 8.5t39 6.5l31 5q25 5 51.5 11.5t32.5 7.5v14q0 28 -16.5 49t-57.5 21q-66 0 -76 -66h-174q0 43 19 82q51 102 223 102q170 0 227 -90q19 -30 19 -78v-356q0 -20 3 -28t17 -29h-174q-2 14 -2 35v14q-78 -60 -160 -60 q-54 0 -94 17.5t-60.5 45t-30 55t-9.5 55.5zM248 1055q0 -19 13.5 -35t43.5 -16q115 0 115 147q-18 -5 -52 -15.5t-51 -15.5q-20 -7 -32.5 -12.5t-24.5 -19.5t-12 -33z" />
<glyph unicode="&#xab;" horiz-adv-x="854" d="M66 473v254l327 274v-282l-133 -117l133 -117v-280zM451 471v256l323 274v-282l-139 -117l139 -117v-280z" />
<glyph unicode="&#xac;" horiz-adv-x="1482" d="M139 524v275h1159v-750h-340v475h-819z" />
<glyph unicode="&#xad;" horiz-adv-x="770" d="M78 485v293h612v-293h-612z" />
<glyph unicode="&#xae;" horiz-adv-x="1685" d="M115 725q0 200 97 367.5t264.5 264.5t367.5 97q196 0 364 -96t266.5 -261t98.5 -358q0 -157 -56 -295t-152.5 -236t-232.5 -155t-290 -57q-198 0 -365.5 97t-264.5 264.5t-97 367.5zM215 723q0 -175 83.5 -322.5t228 -233t315.5 -85.5q169 0 314.5 85.5t231 230.5 t85.5 313q0 184 -82.5 334.5t-227 236.5t-319.5 86q-171 0 -316 -86.5t-229 -235t-84 -323.5zM532 274v914h273q117 0 179 -11t108 -40q120 -75 120 -244q0 -91 -36.5 -150.5t-120.5 -101.5l168 -367h-242l-123 330h-106v-330h-220zM750 780h114q65 0 92 26t27 87 q0 57 -29 82.5t-92 25.5h-112v-221z" />
<glyph unicode="&#xaf;" horiz-adv-x="555" d="M-141 1223v207h837v-207h-837z" />
<glyph unicode="&#xb0;" horiz-adv-x="724" d="M10 1192q0 147 102.5 250.5t249.5 103.5q148 0 250.5 -103t102.5 -251q0 -145 -104 -248.5t-249 -103.5t-248.5 103.5t-103.5 248.5zM215 1192q0 -60 43.5 -104t103.5 -44t104 44t44 104q0 61 -43.5 103t-104.5 42q-62 0 -104.5 -42t-42.5 -103z" />
<glyph unicode="&#xb1;" horiz-adv-x="1482" d="M188 0v270h1106v-270h-1106zM188 768v266h383v377h340v-377h383v-266h-383v-391h-342v391h-381z" />
<glyph unicode="&#xb2;" horiz-adv-x="768" d="M49 1061q0 28 0.5 43t6 56.5t15.5 68.5t32.5 64.5t54 60t82 39t114.5 16.5q75 0 134.5 -20t94.5 -51t58.5 -72t32 -79t8.5 -77q0 -57 -19 -110t-45.5 -93.5t-75.5 -88t-87.5 -78.5t-102.5 -78h336v-181h-631v168q259 199 330 291q66 87 66 182q0 43 -21 78.5t-67 36.5 q-50 1 -74.5 -38.5t-24.5 -86.5q0 -11 2 -26t4 -26l2 -11z" />
<glyph unicode="&#xb3;" horiz-adv-x="768" d="M45 766v33l219 16q-4 -28 -4 -41q0 -66 34.5 -99.5t76.5 -33.5q53 0 84.5 35t31.5 86q0 49 -31.5 85t-105.5 36h-28v164q30 -5 40 -5q13 0 27 3t33 12t31 31t12 53q0 29 -10.5 49.5t-26.5 30.5t-30.5 14t-26.5 4q-41 0 -64.5 -28t-23.5 -85v-20l-220 20q5 31 10.5 54.5 t17 55t26 54t39.5 46.5t56.5 39t76.5 24.5t100 9.5q146 0 219.5 -71t73.5 -167q0 -108 -72 -167q-11 -9 -27 -17t-27 -13l-11 -5q57 -19 73 -29q95 -63 95 -184q0 -40 -11 -79.5t-37 -78.5t-65 -68t-100.5 -46.5t-137.5 -16.5q-317 7 -317 299z" />
<glyph unicode="&#xb4;" horiz-adv-x="555" d="M16 1200l150 273h373l-314 -273h-209z" />
<glyph unicode="&#xb5;" horiz-adv-x="1202" d="M113 -442v1509h313v-479q0 -166 14 -232q13 -58 52 -89t96 -31q113 0 143 120q9 40 12 84q7 72 7 189v438h313v-719q0 -62 14 -87t49 -25q20 0 54 14v-250q-77 -25 -176 -25q-87 0 -138 37t-82 123q-29 -83 -71.5 -118t-114.5 -35q-64 0 -106.5 28t-71.5 90l6 -542h-313z " />
<glyph unicode="&#xb6;" horiz-adv-x="1308" d="M135 1016q0 197 129 317q48 48 115 76q52 22 104.5 29.5t147.5 7.5h489v-170h-73v-1618h-181v1618h-231v-1618h-182v958q-49 12 -88 27q-107 43 -168.5 142.5t-61.5 230.5z" />
<glyph unicode="&#xb7;" horiz-adv-x="481" d="M76 422v342h330v-342h-330z" />
<glyph unicode="&#xb8;" horiz-adv-x="555" d="M76 -299l57 47q54 -65 111 -65q29 0 51 18t22 47q0 40 -35 61t-77 21q-14 0 -58 -8l-26 37l67 123h97l-45 -93q47 7 82 7q83 0 120 -41t37 -91h-2q0 -38 -14 -67q-25 -49 -75.5 -74.5t-106.5 -25.5q-89 0 -158 59q-8 6 -47 45z" />
<glyph unicode="&#xb9;" horiz-adv-x="768" d="M98 1106v149q116 1 174 30t97 101h174v-905h-226v649q-81 -24 -190 -24h-29z" />
<glyph unicode="&#xba;" horiz-adv-x="724" d="M61 1169q0 133 77 214.5t212 82.5q115 3 187 -47q50 -33 85 -98t35 -152q0 -139 -79.5 -221t-219.5 -82q-34 0 -69 6t-77.5 25.5t-74.5 51t-54 88.5t-22 132zM233 1159q2 -64 34.5 -110t99.5 -43q46 1 74 28.5t36 59.5t8 71q0 81 -34.5 121.5t-88.5 40.5q-42 0 -65 -14 q-64 -37 -64 -154z" />
<glyph unicode="&#xbb;" horiz-adv-x="854" d="M74 197v282l139 119l-139 117v278l325 -264v-256zM457 197v282l131 119l-131 117v278l325 -268v-252z" />
<glyph unicode="&#xbc;" horiz-adv-x="1792" d="M98 1106v149q116 1 174 30t97 101h174v-905h-226v649q-81 -24 -190 -24h-29zM430 0l768 1477l164 -86l-770 -1477zM1047 201v172l378 530h213v-543h119v-159h-121v-201h-217v201h-372zM1217 360h202v308q-98 -163 -202 -308z" />
<glyph unicode="&#xbd;" horiz-adv-x="1792" d="M98 1106v149q116 1 174 30t97 101h174v-905h-226v649q-81 -24 -190 -24h-29zM381 0l768 1477l164 -86l-770 -1477zM1071 578q0 348 307 348q75 0 134.5 -20t94.5 -50.5t58.5 -71.5t32 -79t8.5 -76q0 -57 -19 -110t-46 -94t-75.5 -88t-88.5 -79t-103 -78h336v-180h-629 v168q262 202 328 289q68 88 68 182q0 43 -21 78.5t-67 36.5q-51 1 -76 -38t-25 -85q0 -17 4 -39.5t6 -26.5z" />
<glyph unicode="&#xbe;" horiz-adv-x="1792" d="M45 766v33l219 16q-4 -28 -4 -41q0 -66 34.5 -99.5t76.5 -33.5q53 0 84.5 35t31.5 86q0 49 -31.5 85t-105.5 36h-28v164q30 -5 40 -5q13 0 27 3t33 12t31 31t12 53q0 29 -10.5 49.5t-26.5 30.5t-30.5 14t-26.5 4q-41 0 -64.5 -28t-23.5 -85v-20l-220 20q5 31 10.5 54.5 t17 55t26 54t39.5 46.5t56.5 39t76.5 24.5t100 9.5q146 0 219.5 -71t73.5 -167q0 -108 -72 -167q-11 -9 -27 -17t-27 -13l-11 -5q57 -19 73 -29q95 -63 95 -184q0 -40 -11 -79.5t-37 -78.5t-65 -68t-100.5 -46.5t-137.5 -16.5q-317 7 -317 299zM489 0l768 1477l164 -86 l-770 -1477zM1047 201v172l378 530h213v-543h119v-159h-121v-201h-217v201h-372zM1217 360h202v308q-98 -163 -202 -308z" />
<glyph unicode="&#xbf;" d="M39 360q0 114 61 205q40 56 152 137q45 33 139 99q80 59 101 84q16 22 26 69l260 -2q0 -84 -18 -133q-16 -41 -51.5 -79.5t-70.5 -63t-83 -57.5t-72 -54q-10 -8 -22.5 -20t-32 -35t-32 -54t-13.5 -63q0 -23 8 -55q35 -129 184 -129q128 0 197 96q24 34 41 84q6 29 6 64 l293 -97q0 -1 -4.5 -13.5t-10.5 -27.5t-14 -33.5t-17.5 -38t-18.5 -34.5q-144 -232 -498 -232q-127 0 -225 31q-69 21 -122 55.5t-83 71t-49 80t-25 78t-6 67.5zM483 1104v342h324v-342h-324z" />
<glyph unicode="&#xc0;" horiz-adv-x="1449" d="M-2 0l537 1446h376l533 -1446h-385l-72 231h-532l-72 -231h-385zM344 1839h377l129 -237h-207zM539 492h366l-188 610z" />
<glyph unicode="&#xc1;" horiz-adv-x="1449" d="M-2 0l537 1446h376l533 -1446h-385l-72 231h-532l-72 -231h-385zM539 492h366l-188 610zM604 1602l125 235h369l-297 -235h-197z" />
<glyph unicode="&#xc2;" horiz-adv-x="1449" d="M-2 0l537 1446h376l533 -1446h-385l-72 231h-532l-72 -231h-385zM408 1595l184 236h272l180 -236h-239l-82 105l-78 -105h-237zM539 492h366l-188 610z" />
<glyph unicode="&#xc3;" horiz-adv-x="1449" d="M-2 0l537 1446h376l533 -1446h-385l-72 231h-532l-72 -231h-385zM375 1585q1 17 10 66q17 107 96 159q50 35 109 35q64 0 168 -47q88 -39 121 -39q14 0 26.5 5.5t20.5 13.5t15 18.5t10.5 18t6.5 15.5t3 9h141q-6 -54 -12.5 -86t-27.5 -73t-56 -68q-49 -37 -105 -37 q-59 0 -188 57q-85 39 -125 39q-57 0 -74 -86h-139zM539 492h366l-188 610z" />
<glyph unicode="&#xc4;" horiz-adv-x="1449" d="M-2 0l537 1446h376l533 -1446h-385l-72 231h-532l-72 -231h-385zM328 1593v240h327v-240h-327zM539 492h366l-188 610zM780 1593v240h330v-240h-330z" />
<glyph unicode="&#xc5;" horiz-adv-x="1449" d="M-2 0l537 1446h376l533 -1446h-385l-72 231h-532l-72 -231h-385zM514 1698q0 83 59.5 141.5t141.5 58.5q83 0 141.5 -59t58.5 -141q0 -83 -59 -142t-141 -59q-83 0 -142 59t-59 142zM539 492h366l-188 610zM637 1698q0 -37 25 -56q16 -22 55 -22q33 0 56.5 23.5 t23.5 56.5q0 34 -23 57t-57 23q-34 -2 -57 -25t-23 -57z" />
<glyph unicode="&#xc6;" horiz-adv-x="2304" d="M-10 0l854 1446h1351v-275h-739v-268h690v-276h-688v-344h807v-283h-1169v350h-506l-195 -350h-405zM735 616h361v648z" />
<glyph unicode="&#xc7;" horiz-adv-x="1437" d="M80 720v2v1q0 219 88 385q26 52 61 101t90 102t119.5 91.5t153.5 63.5t188 25q29 0 55.5 -1.5t90.5 -14t119 -35t125 -70.5t126 -115q51 -57 95 -139l-285 -143q-30 61 -47 84q-41 55 -107.5 96t-154.5 41q-78 0 -141 -30.5t-102.5 -78.5t-66 -110.5t-37 -122.5 t-10.5 -119q0 -118 29.5 -210.5t79.5 -149t113 -85t135 -28.5q53 0 99 15t75.5 34t59.5 52.5t44 55t35 56.5l287 -143q-68 -105 -111 -152q-107 -114 -243 -167.5t-267 -53.5h-18l-31 -68q53 7 80 7q81 0 118.5 -40.5t37.5 -93.5q0 -76 -62 -120.5t-135 -44.5 q-114 0 -203 104l58 47q16 -18 26 -28.5t34 -23.5t48 -13q30 0 52 17.5t22 47.5q0 35 -31.5 58.5t-85.5 23.5q-34 -4 -53 -8l-25 37l58 106q-2 0 -24 4t-34 6.5t-37.5 9.5t-46 14.5t-49 20.5t-55.5 29q-71 41 -127.5 98.5t-91 113.5t-60 122.5t-37 115.5t-17.5 104 t-6.5 75.5t-0.5 41.5z" />
<glyph unicode="&#xc8;" horiz-adv-x="1323" d="M139 0v1446h1069v-279h-708v-264h661v-274h-661v-344h774v-285h-1135zM334 1839h375l131 -237h-207z" />
<glyph unicode="&#xc9;" horiz-adv-x="1323" d="M139 0v1446h1069v-279h-708v-264h661v-274h-661v-344h774v-285h-1135zM518 1602l125 235h369l-295 -235h-199z" />
<glyph unicode="&#xca;" horiz-adv-x="1323" d="M139 0v1446h1069v-279h-708v-264h661v-274h-661v-344h774v-285h-1135zM344 1595l182 236h273l180 -236h-238l-82 105l-77 -105h-238z" />
<glyph unicode="&#xcb;" horiz-adv-x="1323" d="M139 0v1446h1069v-279h-708v-264h661v-274h-661v-344h774v-285h-1135zM268 1599v240h328v-240h-328zM723 1602v237h330v-237h-330z" />
<glyph unicode="&#xcc;" horiz-adv-x="641" d="M-61 1839h376l129 -237h-206zM137 0v1446h361v-1446h-361z" />
<glyph unicode="&#xcd;" horiz-adv-x="641" d="M137 0v1446h361v-1446h-361zM199 1602l125 235h368l-295 -235h-198z" />
<glyph unicode="&#xce;" horiz-adv-x="641" d="M2 1595l184 236h273l180 -236h-240l-82 105l-77 -105h-238zM137 0v1446h361v-1446h-361z" />
<glyph unicode="&#xcf;" horiz-adv-x="641" d="M-74 1599v240h330v-240h-330zM137 0v1446h361v-1446h-361zM383 1602v237h328v-237h-328z" />
<glyph unicode="&#xd0;" horiz-adv-x="1492" d="M0 698v162h137v586h461q61 0 105 -1.5t112 -8t119 -18.5t114 -36t112 -56.5t97.5 -83t83.5 -114.5q93 -167 91 -405q-1 -92 -15.5 -175.5t-50 -169t-89 -152.5t-139.5 -120.5t-196 -80.5q-105 -25 -237 -25h-568v698h-137zM502 291h108q65 0 112 3.5t114.5 24t111.5 58.5 q121 102 121 350q0 74 -8 116q-34 195 -187 267q-65 31 -194 31h-178v-281h356v-162h-356v-407z" />
<glyph unicode="&#xd1;" horiz-adv-x="1492" d="M137 0v1446h355l528 -907l-14 907h346v-1446h-355l-524 895l12 -895h-348zM395 1585l5.5 33l5.5 33q27 113 96 159q50 35 108 35q68 0 168 -47q88 -39 121 -39q21 0 37.5 10.5t26 27t13 25.5t5.5 17h141q-5 -42 -9 -64.5t-14 -57t-28 -60t-45 -45.5q-46 -37 -102 -37 q-69 0 -191 57q-92 39 -123 39q-58 0 -75 -86h-140z" />
<glyph unicode="&#xd2;" horiz-adv-x="1622" d="M86 729q0 266 137 467q26 39 56 73.5t82.5 77t112 72.5t145.5 51t182 21q97 0 184 -19.5t150.5 -52.5t106 -64t75.5 -65q101 -104 159 -263.5t58 -313.5q0 -171 -72 -334.5t-202 -269.5q-188 -152 -455 -152q-46 0 -94 6t-123 24.5t-153 64t-142 112.5q-55 58 -96 130 t-61.5 132t-32.5 126.5t-14.5 103.5t-2.5 73zM440 1839h377l129 -237h-207zM442 733q0 -237 121 -366q97 -105 244 -105q54 0 122.5 23t127.5 86q107 115 114 317q4 123 -24 216.5t-68 148.5q-51 71 -139 108q-66 27 -139 27q-83 0 -162 -41q-101 -57 -149 -171t-48 -243z " />
<glyph unicode="&#xd3;" horiz-adv-x="1622" d="M86 729q0 266 137 467q26 39 56 73.5t82.5 77t112 72.5t145.5 51t182 21q97 0 184 -19.5t150.5 -52.5t106 -64t75.5 -65q101 -104 159 -263.5t58 -313.5q0 -171 -72 -334.5t-202 -269.5q-188 -152 -455 -152q-46 0 -94 6t-123 24.5t-153 64t-142 112.5q-55 58 -96 130 t-61.5 132t-32.5 126.5t-14.5 103.5t-2.5 73zM442 733q0 -237 121 -366q97 -105 244 -105q54 0 122.5 23t127.5 86q107 115 114 317q4 123 -24 216.5t-68 148.5q-51 71 -139 108q-66 27 -139 27q-83 0 -162 -41q-101 -57 -149 -171t-48 -243zM678 1602l125 235h368 l-294 -235h-199z" />
<glyph unicode="&#xd4;" horiz-adv-x="1622" d="M86 729q0 266 137 467q26 39 56 73.5t82.5 77t112 72.5t145.5 51t182 21q97 0 184 -19.5t150.5 -52.5t106 -64t75.5 -65q101 -104 159 -263.5t58 -313.5q0 -171 -72 -334.5t-202 -269.5q-188 -152 -455 -152q-46 0 -94 6t-123 24.5t-153 64t-142 112.5q-55 58 -96 130 t-61.5 132t-32.5 126.5t-14.5 103.5t-2.5 73zM442 733q0 -237 121 -366q97 -105 244 -105q54 0 122.5 23t127.5 86q107 115 114 317q4 123 -24 216.5t-68 148.5q-51 71 -139 108q-66 27 -139 27q-83 0 -162 -41q-101 -57 -149 -171t-48 -243zM494 1595l182 236h272l180 -236 h-237l-82 105l-80 -105h-235z" />
<glyph unicode="&#xd5;" horiz-adv-x="1622" d="M86 729q0 266 137 467q26 39 56 73.5t82.5 77t112 72.5t145.5 51t182 21q97 0 184 -19.5t150.5 -52.5t106 -64t75.5 -65q101 -104 159 -263.5t58 -313.5q0 -171 -72 -334.5t-202 -269.5q-188 -152 -455 -152q-46 0 -94 6t-123 24.5t-153 64t-142 112.5q-55 58 -96 130 t-61.5 132t-32.5 126.5t-14.5 103.5t-2.5 73zM442 733q0 -237 121 -366q97 -105 244 -105q54 0 122.5 23t127.5 86q107 115 114 317q4 123 -24 216.5t-68 148.5q-51 71 -139 108q-66 27 -139 27q-83 0 -162 -41q-101 -57 -149 -171t-48 -243zM461 1585q4 41 10 66 q17 107 94 159q50 35 109 35q68 0 168 -47q88 -39 121 -39q21 0 37.5 10.5t25.5 27.5t12.5 25.5t5.5 16.5h142q-5 -53 -11.5 -86t-27.5 -73.5t-57 -67.5q-46 -37 -103 -37q-68 0 -190 57q-92 39 -123 39q-59 0 -76 -86h-137z" />
<glyph unicode="&#xd6;" horiz-adv-x="1622" d="M86 729q0 266 137 467q26 39 56 73.5t82.5 77t112 72.5t145.5 51t182 21q97 0 184 -19.5t150.5 -52.5t106 -64t75.5 -65q101 -104 159 -263.5t58 -313.5q0 -171 -72 -334.5t-202 -269.5q-188 -152 -455 -152q-46 0 -94 6t-123 24.5t-153 64t-142 112.5q-55 58 -96 130 t-61.5 132t-32.5 126.5t-14.5 103.5t-2.5 73zM420 1597v238h328v-238h-328zM442 733q0 -237 121 -366q97 -105 244 -105q54 0 122.5 23t127.5 86q107 115 114 317q4 123 -24 216.5t-68 148.5q-51 71 -139 108q-66 27 -139 27q-83 0 -162 -41q-101 -57 -149 -171t-48 -243z M872 1597v238h332v-238h-332z" />
<glyph unicode="&#xd7;" horiz-adv-x="1482" d="M233 918l236 245l297 -284l264 278l195 -184l-267 -277l304 -290l-234 -246l-303 289l-264 -277l-193 184l264 277z" />
<glyph unicode="&#xd8;" horiz-adv-x="1579" d="M-6 111l199 180q-4 8 -20 36t-23 44q-27 57 -49.5 150.5t-22.5 205.5q0 113 26 215q48 203 197 352q113 113 258 160q108 35 246 35q198 0 362 -107q52 -32 121 -98l182 166l111 -121l-192 -176q5 -12 17 -33.5t17 -32.5q74 -152 74 -358q0 -269 -123 -457 q-35 -58 -102 -122q-109 -107 -232 -150q-115 -41 -256 -41q-89 0 -163 18q-164 38 -326 185l-191 -174zM428 729q0 -78 23 -203l600 547q-31 34 -47 47q-93 80 -207 80q-144 0 -242 -98q-46 -47 -74.5 -103t-38.5 -115.5t-12 -86.5t-2 -68zM532 375q3 -3 10 -11t15 -16 t18 -16q39 -32 91.5 -51t84 -23t56.5 -4q150 0 254 135q96 127 96 322q0 76 -31 204z" />
<glyph unicode="&#xd9;" horiz-adv-x="1492" d="M127 639v807h365v-901q0 -100 12.5 -145t54.5 -78q73 -56 193 -56q118 0 178 53q32 28 48 70t18.5 73t2.5 85v899h363v-807q0 -200 -39 -311q-25 -69 -66.5 -126t-87.5 -93.5t-101.5 -64t-102 -42t-96 -23t-78 -10.5t-52.5 -2q-37 0 -80 5t-114 20t-144.5 53.5 t-130.5 95.5q-50 50 -80.5 108t-43.5 129t-16 123t-3 138zM387 1839h377l129 -237h-207z" />
<glyph unicode="&#xda;" horiz-adv-x="1492" d="M127 639v807h365v-901q0 -100 12.5 -145t54.5 -78q73 -56 193 -56q118 0 178 53q32 28 48 70t18.5 73t2.5 85v899h363v-807q0 -200 -39 -311q-25 -69 -66.5 -126t-87.5 -93.5t-101.5 -64t-102 -42t-96 -23t-78 -10.5t-52.5 -2q-37 0 -80 5t-114 20t-144.5 53.5 t-130.5 95.5q-50 50 -80.5 108t-43.5 129t-16 123t-3 138zM604 1602l125 235h369l-297 -235h-197z" />
<glyph unicode="&#xdb;" horiz-adv-x="1492" d="M127 639v807h365v-901q0 -100 12.5 -145t54.5 -78q73 -56 193 -56q118 0 178 53q32 28 48 70t18.5 73t2.5 85v899h363v-807q0 -200 -39 -311q-25 -69 -66.5 -126t-87.5 -93.5t-101.5 -64t-102 -42t-96 -23t-78 -10.5t-52.5 -2q-37 0 -80 5t-114 20t-144.5 53.5 t-130.5 95.5q-50 50 -80.5 108t-43.5 129t-16 123t-3 138zM430 1595l182 236h273l180 -236h-240l-80 105l-79 -105h-236z" />
<glyph unicode="&#xdc;" horiz-adv-x="1492" d="M127 639v807h365v-901q0 -100 12.5 -145t54.5 -78q73 -56 193 -56q118 0 178 53q32 28 48 70t18.5 73t2.5 85v899h363v-807q0 -200 -39 -311q-25 -69 -66.5 -126t-87.5 -93.5t-101.5 -64t-102 -42t-96 -23t-78 -10.5t-52.5 -2q-37 0 -80 5t-114 20t-144.5 53.5 t-130.5 95.5q-50 50 -80.5 108t-43.5 129t-16 123t-3 138zM352 1597v240h330v-240h-330zM807 1597v240h330v-240h-330z" />
<glyph unicode="&#xdd;" horiz-adv-x="1449" d="M4 1446h414l311 -490l309 490h412l-547 -762v-684h-356v674zM584 1602l123 235h370l-297 -235h-196z" />
<glyph unicode="&#xde;" horiz-adv-x="1409" d="M137 0v1446h363v-211h256q134 0 210.5 -8t135.5 -29q80 -29 137 -81.5t85.5 -116t40.5 -124.5t11 -126q-3 -187 -100 -304q-35 -44 -78 -77t-93 -52.5t-91.5 -31.5t-99 -16.5t-88.5 -5.5t-85 -1h-241v-262h-363zM500 530h219q38 0 64.5 1.5t60 6.5t56.5 14t47 26 t38.5 40.5t23.5 59t9 80.5q0 82 -39 131q-37 49 -92 64.5t-156 15.5h-231v-439z" />
<glyph unicode="&#xdf;" d="M137 0v961q0 126 29 221q44 153 161 224t289 71q183 0 295 -68q57 -34 97 -90q71 -96 71 -219q0 -84 -31.5 -138.5t-72.5 -80.5q-19 -11 -80 -31q54 -5 86 -16q140 -53 178 -224q12 -54 12 -143q0 -171 -65 -299q-101 -191 -324 -191q-64 0 -151 21q-9 2 -26 7.5t-21 6.5 v234q2 -1 12.5 -7t17.5 -8.5t19 -7t25.5 -6.5t29.5 -2q43 0 75.5 15.5t50.5 43t29.5 52.5t15 59t4.5 45.5t1 26.5q0 150 -63 223q-27 34 -62 49q-37 16 -125 16h-55v189h53q39 0 80 10q44 11 70 43.5t26 110.5q0 61 -23 97.5t-54 51.5q-36 19 -86 19q-102 0 -148 -84 q-4 -8 -7.5 -16t-6 -15t-4.5 -17.5t-3.5 -17t-2.5 -20t-1.5 -20t-0.5 -24v-25v-29v-31.5v-967h-314z" />
<glyph unicode="&#xe0;" horiz-adv-x="1193" d="M90 297q0 55 18.5 104t44.5 81t59.5 59.5t55.5 40t41 20.5q86 38 428 100v60q0 129 -121 129q-115 0 -151 -78q-9 -18 -14 -47h-316q0 2 1 14.5t1.5 17t2.5 18.5t4 21.5t5.5 22t8 24t10.5 23.5t13.5 25.5t17.5 24t22 24.5q86 84 242 109q61 8 137 8q62 0 120.5 -8.5 t119.5 -28t109.5 -58.5t74.5 -94q23 -56 23 -118v-625q0 -73 5.5 -105.5t24.5 -60.5h-309v96q-56 -39 -66 -45q-116 -80 -262 -80q-68 0 -124.5 16.5t-93 45t-59.5 56t-38 58.5q-35 68 -35 150zM246 1475h377l153 -273h-209zM399 311q0 -23 13 -49q35 -59 108 -59 q61 0 121 43q33 24 53.5 54t29 68t11 67.5t2.5 76.5l-202 -68q-27 -9 -37 -14q-99 -42 -99 -119z" />
<glyph unicode="&#xe1;" horiz-adv-x="1193" d="M90 297q0 55 18.5 104t44.5 81t59.5 59.5t55.5 40t41 20.5q86 38 428 100v60q0 129 -121 129q-115 0 -151 -78q-9 -18 -14 -47h-316q0 2 1 14.5t1.5 17t2.5 18.5t4 21.5t5.5 22t8 24t10.5 23.5t13.5 25.5t17.5 24t22 24.5q86 84 242 109q61 8 137 8q62 0 120.5 -8.5 t119.5 -28t109.5 -58.5t74.5 -94q23 -56 23 -118v-625q0 -73 5.5 -105.5t24.5 -60.5h-309v96q-56 -39 -66 -45q-116 -80 -262 -80q-68 0 -124.5 16.5t-93 45t-59.5 56t-38 58.5q-35 68 -35 150zM399 311q0 -23 13 -49q35 -59 108 -59q61 0 121 43q33 24 53.5 54t29 68 t11 67.5t2.5 76.5l-202 -68q-27 -9 -37 -14q-99 -42 -99 -119zM498 1200l149 273h375l-315 -273h-209z" />
<glyph unicode="&#xe2;" horiz-adv-x="1193" d="M90 297q0 55 18.5 104t44.5 81t59.5 59.5t55.5 40t41 20.5q86 38 428 100v60q0 129 -121 129q-115 0 -151 -78q-9 -18 -14 -47h-316q0 2 1 14.5t1.5 17t2.5 18.5t4 21.5t5.5 22t8 24t10.5 23.5t13.5 25.5t17.5 24t22 24.5q86 84 242 109q61 8 137 8q62 0 120.5 -8.5 t119.5 -28t109.5 -58.5t74.5 -94q23 -56 23 -118v-625q0 -73 5.5 -105.5t24.5 -60.5h-309v96q-56 -39 -66 -45q-116 -80 -262 -80q-68 0 -124.5 16.5t-93 45t-59.5 56t-38 58.5q-35 68 -35 150zM264 1204l207 271h258l211 -269h-242l-98 127l-96 -129h-240zM399 311 q0 -23 13 -49q35 -59 108 -59q61 0 121 43q33 24 53.5 54t29 68t11 67.5t2.5 76.5l-202 -68q-27 -9 -37 -14q-99 -42 -99 -119z" />
<glyph unicode="&#xe3;" horiz-adv-x="1193" d="M90 297q0 55 18.5 104t44.5 81t59.5 59.5t55.5 40t41 20.5q86 38 428 100v60q0 129 -121 129q-115 0 -151 -78q-9 -18 -14 -47h-316q0 2 1 14.5t1.5 17t2.5 18.5t4 21.5t5.5 22t8 24t10.5 23.5t13.5 25.5t17.5 24t22 24.5q86 84 242 109q61 8 137 8q62 0 120.5 -8.5 t119.5 -28t109.5 -58.5t74.5 -94q23 -56 23 -118v-625q0 -73 5.5 -105.5t24.5 -60.5h-309v96q-56 -39 -66 -45q-116 -80 -262 -80q-68 0 -124.5 16.5t-93 45t-59.5 56t-38 58.5q-35 68 -35 150zM227 1192q15 153 65.5 222t141.5 69q68 0 146 -39q3 -2 23 -11.5t26.5 -12.5 t23.5 -10.5t27 -10.5t24.5 -5.5t26.5 -2.5q50 0 70 43q7 14 10 41h143q-7 -56 -14 -91q-16 -87 -56.5 -140t-121.5 -52q-66 0 -172 49q-57 27 -82.5 36t-52.5 9q-22 0 -41 -12q-8 -6 -14.5 -14t-10.5 -16t-7 -17t-4 -15t-2 -12.5t-1 -7.5h-148zM399 311q0 -23 13 -49 q35 -59 108 -59q61 0 121 43q33 24 53.5 54t29 68t11 67.5t2.5 76.5l-202 -68q-27 -9 -37 -14q-99 -42 -99 -119z" />
<glyph unicode="&#xe4;" horiz-adv-x="1193" d="M90 297q0 55 18.5 104t44.5 81t59.5 59.5t55.5 40t41 20.5q86 38 428 100v60q0 129 -121 129q-115 0 -151 -78q-9 -18 -14 -47h-316q0 2 1 14.5t1.5 17t2.5 18.5t4 21.5t5.5 22t8 24t10.5 23.5t13.5 25.5t17.5 24t22 24.5q86 84 242 109q61 8 137 8q62 0 120.5 -8.5 t119.5 -28t109.5 -58.5t74.5 -94q23 -56 23 -118v-625q0 -73 5.5 -105.5t24.5 -60.5h-309v96q-56 -39 -66 -45q-116 -80 -262 -80q-68 0 -124.5 16.5t-93 45t-59.5 56t-38 58.5q-35 68 -35 150zM209 1221v254h321v-254h-321zM399 311q0 -23 13 -49q35 -59 108 -59 q61 0 121 43q33 24 53.5 54t29 68t11 67.5t2.5 76.5l-202 -68q-27 -9 -37 -14q-99 -42 -99 -119zM723 1221v254h321v-254h-321z" />
<glyph unicode="&#xe5;" horiz-adv-x="1193" d="M90 297q0 55 18.5 104t44.5 81t59.5 59.5t55.5 40t41 20.5q86 38 428 100v60q0 129 -121 129q-115 0 -151 -78q-9 -18 -14 -47h-316q0 2 1 14.5t1.5 17t2.5 18.5t4 21.5t5.5 22t8 24t10.5 23.5t13.5 25.5t17.5 24t22 24.5q86 84 242 109q61 8 137 8q62 0 120.5 -8.5 t119.5 -28t109.5 -58.5t74.5 -94q23 -56 23 -118v-625q0 -73 5.5 -105.5t24.5 -60.5h-309v96q-56 -39 -66 -45q-116 -80 -262 -80q-68 0 -124.5 16.5t-93 45t-59.5 56t-38 58.5q-35 68 -35 150zM399 311q0 -23 13 -49q35 -59 108 -59q61 0 121 43q33 24 53.5 54t29 68 t11 67.5t2.5 76.5l-202 -68q-27 -9 -37 -14q-99 -42 -99 -119zM426 1337q0 83 59 142t142 59q84 0 143 -59.5t59 -143.5t-59 -142t-143 -58q-85 0 -144 59q-57 57 -57 143zM547 1335q0 -35 22 -57q23 -23 58 -23q34 0 58.5 24.5t23.5 57.5q0 32 -25 56t-57 24 q-34 0 -57 -24.5t-23 -57.5z" />
<glyph unicode="&#xe6;" horiz-adv-x="1792" d="M51 319q0 85 41 160q39 74 116 121t222 72q33 5 92 12t107.5 15t89.5 20q0 52 -6.5 77.5t-24.5 45.5q-38 43 -125 43q-73 0 -106 -27q-15 -8 -29 -35q-7 -11 -12 -55h-322q7 58 13.5 88.5t26.5 69.5t54 71q109 105 322 105q61 0 119 -8q79 -11 129 -32.5t135 -72.5 q65 48 88 60q113 55 244 55q137 0 243 -55q47 -23 80 -56q122 -103 170 -278q8 -27 13.5 -57t8 -58t4 -48.5t2.5 -41.5t1 -25h-715q7 -68 21 -102q25 -68 86.5 -114t132.5 -46q27 0 52.5 6.5t45 16.5t38 25.5t31 29t25.5 31.5t19 28t13.5 24t8.5 15l244 -125q-1 -2 -10 -16 t-17 -26.5t-21.5 -31t-25.5 -32.5q-76 -90 -189 -141.5t-233 -51.5q-167 0 -307 95q-5 4 -16.5 12t-16.5 12q-16 14 -45 43q-65 -56 -96 -74q-66 -42 -154.5 -66t-168.5 -24q-29 0 -64.5 5t-93 21t-111 56t-86.5 99q-43 83 -43 165zM362 330q0 -31 12 -54.5t27.5 -35t37 -18 t35 -8t26.5 -1.5q69 0 123 43q41 33 63 81.5t26 89.5t3 103q-51 -20 -76 -26q-13 -4 -61.5 -14t-77 -19.5t-65 -27.5t-55 -46.5t-18.5 -66.5zM1032 680h387q-17 98 -57 144q-49 56 -131 55q-44 0 -79.5 -16t-57 -41t-33 -45t-17.5 -38q-5 -13 -12 -59z" />
<glyph unicode="&#xe7;" horiz-adv-x="1103" d="M68 526q0 164 60 292t183 205t293 77q20 0 35 -0.5t52 -5.5t68 -14t74.5 -28.5t80 -45.5t76 -68.5t71.5 -95.5l-234 -133q-23 47 -36 63q-69 86 -170 86q-62 0 -109 -32t-71.5 -82t-36.5 -99.5t-13 -97.5t10.5 -101t36.5 -107t74 -89t115 -35q21 0 44.5 5.5t56 20.5 t61.5 49.5t47 84.5l237 -123q-52 -83 -100 -131q-154 -156 -375 -156q-4 0 -13.5 1t-13.5 1l-36 -78q52 7 81 7q80 0 117 -41t37 -93q-2 -57 -52.5 -111t-144.5 -54q-113 0 -202 104l57 47q57 -65 111 -65q37 0 54 21t17 44q0 35 -31 58.5t-85 23.5q-41 -5 -54 -8l-24 37 l65 118q-59 12 -114 35.5t-110.5 68t-96.5 104t-66.5 147.5t-25.5 194z" />
<glyph unicode="&#xe8;" horiz-adv-x="1193" d="M66 514q0 259 137 418q30 33 61 58.5t80 53t118 43t152 15.5q40 0 79.5 -5t103.5 -22t126.5 -60t108.5 -108q19 -27 35.5 -56.5t28 -60t20.5 -58.5t14.5 -59.5t9.5 -54t6 -50.5t3 -41.5t1.5 -35t0.5 -22.5h-764q0 -44 4 -63q19 -95 82.5 -149t157.5 -54q54 0 102 18 q15 5 30 13t27 16t23.5 19.5l20 20t18 21t15 20.5t12.5 20t9.5 17l7.5 15l5 10l238 -123q-51 -75 -90 -120q-45 -49 -99.5 -86t-101 -56t-98 -30.5t-82.5 -14t-62 -2.5q-102 0 -192 29q-172 54 -260 194t-88 330zM203 1475h377l153 -273h-209zM389 666h436q-9 80 -36 122 q-30 45 -80 68q-45 21 -97 21q-44 0 -80.5 -14.5t-60 -37t-36.5 -41t-21 -36.5q-16 -36 -25 -82z" />
<glyph unicode="&#xe9;" horiz-adv-x="1193" d="M66 514q0 259 137 418q30 33 61 58.5t80 53t118 43t152 15.5q40 0 79.5 -5t103.5 -22t126.5 -60t108.5 -108q19 -27 35.5 -56.5t28 -60t20.5 -58.5t14.5 -59.5t9.5 -54t6 -50.5t3 -41.5t1.5 -35t0.5 -22.5h-764q0 -44 4 -63q19 -95 82.5 -149t157.5 -54q54 0 102 18 q15 5 30 13t27 16t23.5 19.5l20 20t18 21t15 20.5t12.5 20t9.5 17l7.5 15l5 10l238 -123q-51 -75 -90 -120q-45 -49 -99.5 -86t-101 -56t-98 -30.5t-82.5 -14t-62 -2.5q-102 0 -192 29q-172 54 -260 194t-88 330zM389 666h436q-9 80 -36 122q-30 45 -80 68q-45 21 -97 21 q-44 0 -80.5 -14.5t-60 -37t-36.5 -41t-21 -36.5q-16 -36 -25 -82zM467 1200l149 273h373l-315 -273h-207z" />
<glyph unicode="&#xea;" horiz-adv-x="1193" d="M66 514q0 259 137 418q30 33 61 58.5t80 53t118 43t152 15.5q40 0 79.5 -5t103.5 -22t126.5 -60t108.5 -108q19 -27 35.5 -56.5t28 -60t20.5 -58.5t14.5 -59.5t9.5 -54t6 -50.5t3 -41.5t1.5 -35t0.5 -22.5h-764q0 -44 4 -63q19 -95 82.5 -149t157.5 -54q54 0 102 18 q15 5 30 13t27 16t23.5 19.5l20 20t18 21t15 20.5t12.5 20t9.5 17l7.5 15l5 10l238 -123q-51 -75 -90 -120q-45 -49 -99.5 -86t-101 -56t-98 -30.5t-82.5 -14t-62 -2.5q-102 0 -192 29q-172 54 -260 194t-88 330zM264 1204l207 271h258l211 -269h-242l-98 127l-96 -129h-240 zM389 666h436q-9 80 -36 122q-30 45 -80 68q-45 21 -97 21q-44 0 -80.5 -14.5t-60 -37t-36.5 -41t-21 -36.5q-16 -36 -25 -82z" />
<glyph unicode="&#xeb;" horiz-adv-x="1193" d="M66 514q0 259 137 418q30 33 61 58.5t80 53t118 43t152 15.5q40 0 79.5 -5t103.5 -22t126.5 -60t108.5 -108q19 -27 35.5 -56.5t28 -60t20.5 -58.5t14.5 -59.5t9.5 -54t6 -50.5t3 -41.5t1.5 -35t0.5 -22.5h-764q0 -44 4 -63q19 -95 82.5 -149t157.5 -54q54 0 102 18 q15 5 30 13t27 16t23.5 19.5l20 20t18 21t15 20.5t12.5 20t9.5 17l7.5 15l5 10l238 -123q-51 -75 -90 -120q-45 -49 -99.5 -86t-101 -56t-98 -30.5t-82.5 -14t-62 -2.5q-102 0 -192 29q-172 54 -260 194t-88 330zM178 1223v254h322v-254h-322zM389 666h436q-9 80 -36 122 q-30 45 -80 68q-45 21 -97 21q-44 0 -80.5 -14.5t-60 -37t-36.5 -41t-21 -36.5q-16 -36 -25 -82zM692 1223v254h324v-254h-324z" />
<glyph unicode="&#xec;" horiz-adv-x="598" d="M-96 1475h377l153 -273h-207zM141 0v1069h312v-1069h-312z" />
<glyph unicode="&#xed;" horiz-adv-x="598" d="M141 0v1069h312v-1069h-312zM168 1200l149 273h373l-313 -273h-209z" />
<glyph unicode="&#xee;" horiz-adv-x="598" d="M-35 1204l207 271h260l211 -269h-244l-98 127l-94 -129h-242zM141 0v1069h312v-1069h-312z" />
<glyph unicode="&#xef;" horiz-adv-x="598" d="M-121 1223v254h322v-254h-322zM141 0v1069h312v-1069h-312zM395 1223v254h322v-254h-322z" />
<glyph unicode="&#xf0;" horiz-adv-x="1280" d="M63 532q0 201 89.5 333.5t224.5 193.5q97 43 203 43q140 0 233 -101q-61 130 -135 218l-320 -89l-36 105l276 76q-51 51 -84 82l246 96q11 -11 31 -30t34.5 -34t28.5 -32l8 -11l189 52l45 -101l-156 -43q274 -345 274 -743q0 -188 -76 -318.5t-198 -195.5 q-127 -66 -301 -66q-70 0 -135.5 12.5t-134.5 41.5t-130 84.5t-104 134.5q-72 128 -72 292zM383 539q0 -81 22 -144.5t58.5 -101.5t81 -57t92.5 -19q68 0 120 27t81 73t43 98.5t14 110.5q0 164 -68.5 245t-179.5 81q-87 0 -143 -35t-88.5 -107t-32.5 -171z" />
<glyph unicode="&#xf1;" d="M143 0v1067h320v-92q2 2 10 11t17.5 18t21.5 18q100 74 252 74q110 0 190 -43q47 -25 77 -59.5t43.5 -80t17.5 -85t4 -97.5v-731h-316v604q0 119 -12 154q-33 86 -143 86q-68 0 -107 -33q-37 -29 -48 -78.5t-11 -154.5v-578h-316zM250 1192q13 153 64 222t143 69 q65 0 143 -39q3 -2 20 -10t22.5 -11t20.5 -9.5t23.5 -9t21.5 -6.5t24 -5.5t22 -1.5q47 0 69 43q0 1 4.5 15.5t6.5 25.5h141q-11 -87 -12 -91q-16 -87 -57 -140t-124 -52q-67 0 -170 49q-42 19 -59 26.5t-38 13t-40 5.5q-22 0 -39 -12q-9 -6 -16 -14t-11 -16t-7 -17t-4 -14.5 t-2 -12.5t-1 -8h-145z" />
<glyph unicode="&#xf2;" horiz-adv-x="1280" d="M66 537q0 232 124 381q31 37 71.5 68.5t99.5 61t142 44t179 8.5q205 -10 336 -115q97 -79 146.5 -197.5t49.5 -252.5q0 -86 -18.5 -161.5t-48.5 -129.5t-59.5 -90t-61.5 -62q-150 -125 -387 -125q-31 0 -70.5 4.5t-102.5 18t-129.5 47.5t-117.5 84q-61 59 -107 162.5 t-46 253.5zM246 1475h377l153 -273h-209zM383 539q0 -124 55 -215q71 -105 205 -105q123 0 187.5 87.5t64.5 217.5q0 207 -113 287q-59 41 -155 41q-67 0 -119 -31q-50 -29 -87.5 -101.5t-37.5 -180.5z" />
<glyph unicode="&#xf3;" horiz-adv-x="1280" d="M66 537q0 232 124 381q31 37 71.5 68.5t99.5 61t142 44t179 8.5q205 -10 336 -115q97 -79 146.5 -197.5t49.5 -252.5q0 -86 -18.5 -161.5t-48.5 -129.5t-59.5 -90t-61.5 -62q-150 -125 -387 -125q-31 0 -70.5 4.5t-102.5 18t-129.5 47.5t-117.5 84q-61 59 -107 162.5 t-46 253.5zM383 539q0 -124 55 -215q71 -105 205 -105q123 0 187.5 87.5t64.5 217.5q0 207 -113 287q-59 41 -155 41q-67 0 -119 -31q-50 -29 -87.5 -101.5t-37.5 -180.5zM508 1200l149 273h375l-315 -273h-209z" />
<glyph unicode="&#xf4;" horiz-adv-x="1280" d="M66 537q0 232 124 381q31 37 71.5 68.5t99.5 61t142 44t179 8.5q205 -10 336 -115q97 -79 146.5 -197.5t49.5 -252.5q0 -86 -18.5 -161.5t-48.5 -129.5t-59.5 -90t-61.5 -62q-150 -125 -387 -125q-31 0 -70.5 4.5t-102.5 18t-129.5 47.5t-117.5 84q-61 59 -107 162.5 t-46 253.5zM305 1204l209 271h258l211 -269h-242l-98 127l-96 -129h-242zM383 539q0 -124 55 -215q71 -105 205 -105q123 0 187.5 87.5t64.5 217.5q0 207 -113 287q-59 41 -155 41q-67 0 -119 -31q-50 -29 -87.5 -101.5t-37.5 -180.5z" />
<glyph unicode="&#xf5;" horiz-adv-x="1280" d="M66 537q0 232 124 381q31 37 71.5 68.5t99.5 61t142 44t179 8.5q205 -10 336 -115q97 -79 146.5 -197.5t49.5 -252.5q0 -86 -18.5 -161.5t-48.5 -129.5t-59.5 -90t-61.5 -62q-150 -125 -387 -125q-31 0 -70.5 4.5t-102.5 18t-129.5 47.5t-117.5 84q-61 59 -107 162.5 t-46 253.5zM270 1192q13 153 64 222t143 69q66 0 144 -39l18 -9l19 -9.5t18 -8.5t20 -8.5t19 -6.5t20.5 -6t19 -3.5t19.5 -1.5q50 0 70 43q7 14 10 41h141q-3 -43 -12 -91q-16 -87 -56.5 -140t-121.5 -52q-66 0 -172 49q-57 27 -83 36t-54 9q-22 0 -39 -12q-10 -7 -17.5 -17 t-11.5 -20.5t-6 -18t-3 -16.5t-1 -10h-148zM383 539q0 -124 55 -215q71 -105 205 -105q123 0 187.5 87.5t64.5 217.5q0 207 -113 287q-59 41 -155 41q-67 0 -119 -31q-50 -29 -87.5 -101.5t-37.5 -180.5z" />
<glyph unicode="&#xf6;" horiz-adv-x="1280" d="M66 537q0 232 124 381q31 37 71.5 68.5t99.5 61t142 44t179 8.5q205 -10 336 -115q97 -79 146.5 -197.5t49.5 -252.5q0 -86 -18.5 -161.5t-48.5 -129.5t-59.5 -90t-61.5 -62q-150 -125 -387 -125q-31 0 -70.5 4.5t-102.5 18t-129.5 47.5t-117.5 84q-61 59 -107 162.5 t-46 253.5zM225 1219v254h322v-254h-322zM383 539q0 -124 55 -215q71 -105 205 -105q123 0 187.5 87.5t64.5 217.5q0 207 -113 287q-59 41 -155 41q-67 0 -119 -31q-50 -29 -87.5 -101.5t-37.5 -180.5zM739 1219v254h324v-254h-324z" />
<glyph unicode="&#xf7;" horiz-adv-x="1482" d="M162 520v285h1157v-285h-1157zM586 92v318h307v-318h-307zM586 913v320h309v-320h-309z" />
<glyph unicode="&#xf8;" horiz-adv-x="1280" d="M20 61l154 142q-36 54 -39 59q-25 43 -46 117.5t-21 165.5q0 30 4 65.5t15.5 90.5t39.5 114.5t70 108.5q25 30 60.5 57.5t88 56t125.5 45.5t156 17q182 0 319 -82q11 -6 23 -14.5t25.5 -19t21.5 -15.5l153 139l82 -94l-151 -140q5 -8 16.5 -24.5t16.5 -24.5 q79 -136 79 -301q0 -43 -6 -91.5t-38 -132t-87 -144.5q-27 -31 -63 -59.5t-90 -58.5t-129.5 -48.5t-159.5 -18.5q-175 0 -299 78q-23 14 -80 60l-156 -142zM373 539q0 -74 20 -140l424 389q-2 2 -9.5 8.5t-17.5 14.5t-20 14q-55 37 -135 37q-110 0 -182 -74 q-80 -80 -80 -249zM459 289q21 -23 37.5 -36t55.5 -26.5t89 -13.5q70 1 122 29t80.5 76t42 104t13.5 121t-18 133z" />
<glyph unicode="&#xf9;" d="M131 404v28v637h318v-666q0 -62 10 -95.5t49 -57.5q45 -25 92 -25q68 0 111.5 30.5t56.5 66.5q12 32 12 81v666h314v-1069h-316v100q-31 -34 -47 -47q-40 -31 -108.5 -57.5t-155.5 -26.5q-143 0 -227 66q-32 25 -54 61.5t-32.5 67.5t-16 82t-6 77t-0.5 81zM223 1475h379 l152 -273h-207z" />
<glyph unicode="&#xfa;" d="M131 404v28v637h318v-666q0 -62 10 -95.5t49 -57.5q45 -25 92 -25q68 0 111.5 30.5t56.5 66.5q12 32 12 81v666h314v-1069h-316v100q-31 -34 -47 -47q-40 -31 -108.5 -57.5t-155.5 -26.5q-143 0 -227 66q-32 25 -54 61.5t-32.5 67.5t-16 82t-6 77t-0.5 81zM487 1200 l150 273h373l-314 -273h-209z" />
<glyph unicode="&#xfb;" d="M131 404v28v637h318v-666q0 -62 10 -95.5t49 -57.5q45 -25 92 -25q68 0 111.5 30.5t56.5 66.5q12 32 12 81v666h314v-1069h-316v100q-31 -34 -47 -47q-40 -31 -108.5 -57.5t-155.5 -26.5q-143 0 -227 66q-32 25 -54 61.5t-32.5 67.5t-16 82t-6 77t-0.5 81zM285 1204 l207 271h260l211 -269h-242l-100 127l-95 -129h-241z" />
<glyph unicode="&#xfc;" d="M131 404v28v637h318v-666q0 -62 10 -95.5t49 -57.5q45 -25 92 -25q68 0 111.5 30.5t56.5 66.5q12 32 12 81v666h314v-1069h-316v100q-31 -34 -47 -47q-40 -31 -108.5 -57.5t-155.5 -26.5q-143 0 -227 66q-32 25 -54 61.5t-32.5 67.5t-16 82t-6 77t-0.5 81zM199 1221v256 h321v-256h-321zM713 1221v256h321v-256h-321z" />
<glyph unicode="&#xfd;" horiz-adv-x="1024" d="M0 1069h336l176 -766l176 766h336l-377 -1155q-27 -88 -55 -133q-55 -92 -118 -121t-155 -29h-227v252h111q26 0 40.5 1.5t39.5 7.5t38 23.5t13 45.5q0 35 -53 203zM381 1200l149 273h373l-313 -273h-209z" />
<glyph unicode="&#xfe;" d="M131 -371v1817h307v-465q54 56 113 85.5t151 29.5q101 0 183 -33.5t136 -88.5t90.5 -129t52 -152t14.5 -161q-1 -79 -16 -154.5t-50.5 -148.5t-87 -127.5t-131.5 -88t-178 -33.5q-74 0 -128 19.5t-136 70.5v-441h-320zM436 532q0 -155 57 -240t160 -85q52 0 93 25 t64.5 61.5t38.5 84.5t20 87.5t5 75.5q0 74 -14 136.5t-53 116t-100 70.5q-21 6 -45 6q-103 0 -164.5 -91t-61.5 -247z" />
<glyph unicode="&#xff;" horiz-adv-x="1024" d="M0 1069h336l176 -766l176 766h336l-377 -1155q-23 -70 -45 -115.5t-59 -85.5q-48 -49 -97.5 -65.5t-126.5 -16.5h-227v252h144q51 0 74.5 23t23.5 55q0 29 -23 102q-20 66 -30 101zM92 1223v254h324v-254h-324zM608 1223v254h322v-254h-322z" />
<glyph unicode="&#x152;" horiz-adv-x="2260" d="M86 725q0 96 12 174q23 130 78 244q76 150 209 235q75 50 173 77.5t192 27.5q74 0 138 -13.5t92 -25t75 -35.5v37h1091v-281h-729v-266h684v-278h-684v-334h799v-287h-1163v31q-50 -18 -78 -27t-97 -21t-141 -12q-36 0 -76.5 5t-101 19.5t-126 49t-120.5 84.5 q-227 208 -227 596zM451 727q0 -105 22 -188.5t57.5 -137t84 -89t99 -50t105.5 -14.5q65 0 117 16.5t121 52.5v813q-14 14 -58 37q-71 35 -174 35q-67 0 -133 -22q-241 -89 -241 -453z" />
<glyph unicode="&#x153;" horiz-adv-x="1921" d="M66 537q0 239 129 389q149 172 403 172q162 0 287 -78q16 -10 35 -24.5t33.5 -26.5t15.5 -13q20 19 30 27.5t34 23.5t59 33q117 60 262 60q186 -1 313 -101t180 -278q28 -103 37 -250h-764q6 -49 19 -86q35 -101 125 -145q53 -23 114 -23q149 0 224 111q14 23 32 67 l244 -127q-47 -78 -78 -114q-51 -60 -117.5 -100.5t-131 -57t-106.5 -22t-79 -5.5q-105 0 -192 34t-138 71q-14 9 -37 29.5t-30 25.5q-43 -43 -66 -59q-48 -34 -132 -65.5t-185 -31.5q-58 0 -120.5 13.5t-136 52t-130.5 98.5t-95 163.5t-38 236.5zM377 541q0 -37 6 -78 q0 -1 1.5 -14t2.5 -19.5t4 -21.5t6.5 -25.5t9.5 -26t13.5 -28t18.5 -26.5t24 -26q59 -53 145 -53q41 0 72 15q60 28 101 105t40 196q0 221 -104 288q-45 31 -121 29q-62 -2 -102 -29q-40 -26 -66.5 -72.5t-36 -96.5t-12 -75t-2.5 -42zM1124 666h435q-12 79 -52 127 q-60 71 -170 71q-123 0 -176 -92q-29 -48 -37 -106z" />
<glyph unicode="&#x178;" horiz-adv-x="1449" d="M4 1446h414l311 -490l309 490h412l-547 -762v-684h-356v674zM332 1599v240h330v-240h-330zM788 1602v237h328v-237h-328z" />
<glyph unicode="&#x2c6;" horiz-adv-x="555" d="M-61 1204l206 271h261l210 -269h-241l-101 127l-94 -129h-241z" />
<glyph unicode="&#x2dc;" horiz-adv-x="555" d="M-86 1192q13 153 64 222t143 69q65 0 143 -39q3 -2 20 -10t22.5 -11t20.5 -9.5t23.5 -9t21.5 -6.5t24 -5.5t22 -1.5q46 0 71 43l9 41h143l-6 -45t-6 -46q-18 -88 -58.5 -140.5t-121.5 -51.5q-69 0 -170 49q-89 39 -116 43q-11 2 -22 2q-22 0 -39 -12q-41 -28 -41 -82 h-147z" />
<glyph unicode="&#x2000;" horiz-adv-x="949" />
<glyph unicode="&#x2001;" horiz-adv-x="1898" />
<glyph unicode="&#x2002;" horiz-adv-x="949" />
<glyph unicode="&#x2003;" horiz-adv-x="1898" />
<glyph unicode="&#x2004;" horiz-adv-x="632" />
<glyph unicode="&#x2005;" horiz-adv-x="474" />
<glyph unicode="&#x2006;" horiz-adv-x="316" />
<glyph unicode="&#x2007;" horiz-adv-x="316" />
<glyph unicode="&#x2008;" horiz-adv-x="237" />
<glyph unicode="&#x2009;" horiz-adv-x="379" />
<glyph unicode="&#x200a;" horiz-adv-x="105" />
<glyph unicode="&#x2010;" horiz-adv-x="770" d="M78 485v293h612v-293h-612z" />
<glyph unicode="&#x2011;" horiz-adv-x="770" d="M78 485v293h612v-293h-612z" />
<glyph unicode="&#x2012;" horiz-adv-x="770" d="M78 485v293h612v-293h-612z" />
<glyph unicode="&#x2013;" horiz-adv-x="1282" d="M78 485v293h1126v-293h-1126z" />
<glyph unicode="&#x2014;" horiz-adv-x="1880" d="M78 485v293h1724v-293h-1724z" />
<glyph unicode="&#x2018;" horiz-adv-x="512" d="M94 762v319q0 150 88 252t238 125v-141q-48 -20 -75.5 -53t-36.5 -67t-15 -91h127v-344h-326z" />
<glyph unicode="&#x2019;" horiz-adv-x="512" d="M92 754v145q77 23 103 73t28 138h-131v336h326v-295q0 -232 -158 -338q-79 -53 -168 -59z" />
<glyph unicode="&#x201a;" horiz-adv-x="512" d="M92 0v344h328v-281q0 -181 -75 -276t-251 -141v145q36 13 60 33.5t36.5 50t18 56.5t8.5 69h-125z" />
<glyph unicode="&#x201c;" horiz-adv-x="980" d="M94 760v303q0 164 82 269t242 128v-145q-77 -23 -102 -73.5t-27 -139.5h129v-342h-324zM565 760v303q0 164 82.5 269t241.5 128v-145q-77 -23 -102 -73.5t-27 -139.5h129v-342h-324z" />
<glyph unicode="&#x201d;" horiz-adv-x="980" d="M94 748v145q77 24 102 73t27 138h-129v342h324v-303q0 -230 -158 -336q-79 -53 -166 -59zM565 748v145q77 24 102 73t27 138h-129v342h324v-303q0 -232 -156 -336q-83 -53 -168 -59z" />
<glyph unicode="&#x201e;" horiz-adv-x="980" d="M94 0v342h324v-303q0 -164 -82 -267t-242 -130v145q76 26 101.5 75.5t27.5 137.5h-129zM565 0v342h324v-303q0 -162 -83 -268t-241 -129v145q77 24 102 73.5t27 139.5h-129z" />
<glyph unicode="&#x2022;" horiz-adv-x="681" d="M86 463v508h510v-508h-510z" />
<glyph unicode="&#x2026;" horiz-adv-x="2048" d="M209 0v258h262v-258h-262zM893 0v258h262v-258h-262zM1577 0v258h260v-258h-260z" />
<glyph unicode="&#x202f;" horiz-adv-x="379" />
<glyph unicode="&#x2039;" horiz-adv-x="468" d="M66 471v256l323 274v-282l-137 -117l139 -117v-280z" />
<glyph unicode="&#x203a;" horiz-adv-x="468" d="M74 197v282l131 119l-131 117v278l325 -268v-252z" />
<glyph unicode="&#x205f;" horiz-adv-x="474" />
<glyph unicode="&#x20ac;" horiz-adv-x="1452" d="M70 506l55 147h78q-2 10 -2 33q0 15 4 47h-135l55 150h100q58 266 244.5 408.5t462.5 142.5q142 0 242.5 -34t207.5 -120l-122 -293q-69 80 -145.5 118t-178.5 38q-135 0 -219.5 -64.5t-126.5 -195.5h635l-54 -150h-608v-14q0 -43 2 -66h582l-55 -147l-504 -2 q42 -133 142.5 -199.5t244.5 -66.5q95 0 191.5 48t154.5 124v-363q-167 -88 -408 -88q-569 0 -690 545z" />
<glyph unicode="&#x2122;" horiz-adv-x="1507" d="M23 1307v139h555v-139h-187v-541h-176v541h-192zM653 766l2 680h258l111 -434l109 434h256l2 -680h-166l2 518l-133 -518h-142l-139 526l8 -526h-168z" />
<glyph unicode="&#x25fc;" horiz-adv-x="1064" d="M0 0v1065h1065v-1065h-1065z" />
</font>
</defs>
</svg>
